<?xml version="1.0" standalone="no"?>
<!DOCTYPE svg PUBLIC "-//W3C//DTD SVG 1.1//EN" "http://www.w3.org/Graphics/SVG/1.1/DTD/svg11.dtd" >
<svg xmlns="http://www.w3.org/2000/svg">
<metadata>Generated by IcoMoon</metadata>
<defs>
<font id="nifty-demo-icons" horiz-adv-x="1024">
<font-face units-per-em="1024" ascent="1013.76" descent="-10.24" />
<missing-glyph horiz-adv-x="1024" />
<glyph unicode="&#x20;" horiz-adv-x="512" d="" />
<glyph unicode="&#xe900;" glyph-name="pli-add" d="M512 21.333c-270.549 0-490.667 220.117-490.667 490.667s220.117 490.667 490.667 490.667 490.667-220.117 490.667-490.667-220.117-490.667-490.667-490.667zM512 960c-247.040 0-448-200.96-448-448s200.96-448 448-448 448 200.96 448 448-200.96 448-448 448zM704 490.667h-384c-11.776 0-21.333 9.557-21.333 21.333s9.557 21.333 21.333 21.333h384c11.733 0 21.333-9.557 21.333-21.333s-9.6-21.333-21.333-21.333zM512 298.667c-11.776 0-21.333 9.6-21.333 21.333v384c0 11.776 9.557 21.333 21.333 21.333s21.333-9.557 21.333-21.333v-384c0-11.733-9.557-21.333-21.333-21.333z" />
<glyph unicode="&#xe901;" glyph-name="pli-add-cart" d="M846.208 245.376h-469.333c-8.789 0-16.683 5.419-19.883 13.568l-177.237 455.765h-94.421v-42.667c0-11.733-9.557-21.333-21.333-21.333-11.733 0-21.333 9.6-21.333 21.333v64c0 11.733 9.6 21.333 21.333 21.333h130.432c8.747 0 16.683-5.419 19.883-13.568l177.195-455.765h440.021l98.987 259.883-592.043 81.664c-11.648 1.579-19.883 12.373-18.261 24.021 1.579 11.563 12.032 19.584 24.021 18.219l618.667-85.333c6.4-0.896 12.117-4.608 15.403-10.24 3.328-5.589 3.925-12.373 1.579-18.475l-113.792-298.667c-3.029-8.277-11.008-13.739-19.883-13.739zM488.277 178.987c28.8 0 52.139-23.381 52.139-52.139 0-28.928-23.339-52.267-52.139-52.267s-52.139 23.381-52.139 52.267c0.043 28.757 23.424 52.139 52.139 52.139zM488.277 221.653c-52.309 0-94.805-42.539-94.805-94.805 0-52.395 42.496-94.933 94.805-94.933 52.267 0 94.805 42.539 94.805 94.933 0.043 52.267-42.539 94.805-94.805 94.805v0zM734.848 178.987c28.8 0 52.139-23.381 52.139-52.139 0-28.928-23.339-52.267-52.139-52.267-28.843 0-52.181 23.381-52.181 52.267 0 28.757 23.339 52.139 52.181 52.139zM734.848 221.653c-52.309 0-94.848-42.539-94.848-94.805 0-52.395 42.539-94.933 94.848-94.933 52.267 0 94.805 42.539 94.805 94.933-0.043 52.267-42.581 94.805-94.805 94.805v0zM832 736.043c-11.733 0-21.333 9.6-21.333 21.333v213.333c0 11.733 9.6 21.333 21.333 21.333 11.776 0 21.333-9.6 21.333-21.333v-213.333c0-11.733-9.557-21.333-21.333-21.333zM938.667 842.709h-213.333c-11.733 0-21.333 9.6-21.333 21.333s9.6 21.333 21.333 21.333h213.333c11.776 0 21.333-9.6 21.333-21.333s-9.557-21.333-21.333-21.333z" />
<glyph unicode="&#xe902;" glyph-name="pli-add-user" d="M517.333 282.667c-126.507 0-229.589 137.387-239.232 258.901-28.459 8.021-54.101 31.488-54.101 61.099v85.333c0 26.667 25.813 45.909 42.667 55.637v72.363c0 80.896 64.64 146.944 144.939 149.248 17.152 6.869 84.736 32.085 153.728 32.085 110.080 0 170.667-64.427 170.667-181.333v-65.877c42.667-8.32 42.667-42.581 42.667-62.123v-85.333c0-29.696-13.483-51.84-35.243-60.245-8.192-126.080-102.187-259.755-226.091-259.755zM565.333 954.667c-69.205 0-140.245-29.952-140.928-30.293-2.645-1.109-5.504-1.707-8.405-1.707-58.795 0-106.667-47.829-106.667-106.667v-85.333c0-8.363-4.949-16-12.587-19.456-15.189-6.869-29.269-18.645-30.123-23.381v-85.163c0-9.387 17.92-21.333 32-21.333 11.776 0 21.333-9.557 21.333-21.333 0-105.643 91.051-234.667 197.333-234.667 103.637 0 184.021 126.165 184.021 234.667 0 11.776 9.557 21.333 21.333 21.333 8.832 0 13.355 7.168 13.355 21.333v85.333c0 21.333 0 21.333-21.333 21.333-11.733 0-21.333 9.557-21.333 21.333v85.333c0 93.312-41.813 138.667-128 138.667zM842.667 26.667c-11.733 0-21.333 9.557-21.333 21.333v213.333c0 11.776 9.6 21.333 21.333 21.333s21.333-9.557 21.333-21.333v-213.333c0-11.776-9.6-21.333-21.333-21.333zM949.333 133.333h-213.333c-11.733 0-21.333 9.557-21.333 21.333s9.6 21.333 21.333 21.333h213.333c11.733 0 21.333-9.557 21.333-21.333s-9.6-21.333-21.333-21.333zM74.667 26.667c-11.776 0-21.333 9.557-21.333 21.333 0 123.563 98.688 213.333 234.667 213.333h52.608l56.789 84.736c6.571 9.771 19.797 12.416 29.611 5.845 9.771-6.528 12.416-19.797 5.845-29.568l-63.104-94.208c-3.968-5.931-10.624-9.472-17.749-9.472h-64c-113.024 0-192-70.229-192-170.667 0-11.776-9.557-21.333-21.333-21.333z" />
<glyph unicode="&#xe903;" glyph-name="pli-add-user-plus-star" d="M930.074 123.869c-9.71 0-17.655 7.945-17.655 17.655v176.552c0 9.746 7.945 17.655 17.655 17.655s17.655-7.91 17.655-17.655v-176.552c0-9.816-7.945-17.655-17.655-17.655zM1018.35 212.145h-176.552c-9.71 0-17.655 7.945-17.655 17.655 0 9.746 7.945 17.655 17.655 17.655h176.552c9.71 0 17.655-7.91 17.655-17.655s-7.945-17.655-17.655-17.655zM651.829 271.183c-106.602 0-166.241 112.216-171.396 223.055-26.518 5.862-62.393 23.517-62.393 52.224v73.657c0 22.74 21.398 39.089 35.31 47.422v62.994c0 65.96 43.891 107.591 114.935 109.639 56.355 38.559 108.615 58.121 155.436 58.121 42.726 0 78.707-16.949 101.235-47.846 23.94-32.733 30.155-78.318 16.843-122.527v-54.908c35.31-7.097 35.31-36.193 35.31-52.895v-73.622c0-27.26-32.344-46.151-58.933-52.224-4.767-113.311-61.687-223.091-166.347-223.091zM723.756 863.091c-40.183 0-88.452-18.926-139.688-54.872-2.966-2.119-6.568-3.213-10.134-3.213-31.85 0-85.274-9.569-85.274-74.399v-73.587c0-6.78-3.99-13.030-10.169-15.96-13.277-6.321-25.106-16.914-25.141-20.868v-73.657c2.225-6.426 28.707-19.174 44.385-19.174 9.746 0 17.655-7.91 17.655-17.655 0-84.427 42.337-203.282 136.404-203.282 96.362 0 131.354 121.538 131.354 203.282 0 9.746 7.91 17.655 17.655 17.655 16.137 0 39.618 13.135 40.995 19.456v73.375c0 19.174 0 19.174-17.655 19.174-9.71 0-17.655 7.945-17.655 17.655v73.587c0 1.907 0.282 3.672 0.812 5.367 11.017 34.357 6.886 69.314-10.876 93.608-15.925 21.928-41.031 33.51-72.669 33.51zM294.241 549.394c-3.672 0-7.38 1.13-10.487 3.531l-95.303 70.444-95.232-68.467c-6.215-4.449-14.618-4.378-20.798 0.141-6.179 4.59-8.686 12.606-6.215 19.88l36.052 106.072-94.49 63.912c-6.426 4.343-9.251 12.465-6.991 19.88s9.11 12.5 16.914 12.5h117.76l36.37 112.004c4.767 14.548 28.849 14.548 33.58 0l36.405-112.004h117.76c7.768 0 14.618-5.085 16.914-12.5 2.225-7.415-0.636-15.466-7.027-19.88l-94.526-63.594 36.087-108.579c2.436-7.309-0.141-15.36-6.391-19.88-3.107-2.366-6.744-3.46-10.381-3.46zM188.557 662.846c3.672 0 7.38-1.059 10.487-3.46l60.769-44.985-22.74 68.467c-2.507 7.556 0.318 15.784 6.85 20.233l57.662 38.771h-72.739c-7.662 0-14.442 4.943-16.808 12.217l-23.552 72.527-23.552-72.563c-2.366-7.274-9.145-12.182-16.843-12.182h-72.951l57.944-39.194c6.638-4.449 9.393-12.676 6.815-20.233l-22.669-66.666 60.946 43.82c3.143 2.154 6.709 3.249 10.381 3.249zM223.868 123.869c-9.746 0-17.655 7.945-17.655 17.655 0 102.259 81.673 176.552 194.207 176.552h43.502l46.998 70.126c5.438 8.086 16.384 10.311 24.505 4.838 8.086-5.367 10.275-16.384 4.838-24.47l-52.224-77.93c-3.284-4.943-8.792-7.874-14.689-7.874h-52.966c-93.537 0-158.897-58.121-158.897-141.241 0.035-9.816-7.91-17.655-17.62-17.655z" />
<glyph unicode="&#xe904;" glyph-name="pli-arrow-down" d="M512 362.667c-3.541 0-7.040 0.896-10.197 2.645l-469.333 256c-10.325 5.589-14.165 18.56-8.491 28.928 5.632 10.325 18.688 14.165 28.928 8.533l459.093-250.453 459.136 250.453c10.325 5.632 23.339 1.792 28.971-8.533 5.632-10.368 1.835-23.296-8.533-28.928l-469.333-256c-3.2-1.749-6.699-2.645-10.24-2.645z" />
<glyph unicode="&#xe905;" glyph-name="pli-arrow-left" d="M640 21.333c-7.552 0-14.891 4.011-18.688 11.136l-256 469.333c-3.499 6.315-3.499 14.080 0 20.437l256 469.333c5.632 10.325 18.688 14.165 28.928 8.533 10.368-5.675 14.165-18.603 8.533-28.928l-250.496-459.179 250.453-459.136c5.632-10.368 1.835-23.296-8.533-28.971-3.2-1.707-6.699-2.56-10.197-2.56z" />
<glyph unicode="&#xe906;" glyph-name="pli-arrow-left-2" d="M554.667 21.333c-7.552 0-14.891 4.011-18.688 11.136l-256 469.333c-3.499 6.315-3.499 14.080 0 20.437l256 469.333c5.675 10.325 18.645 14.165 28.928 8.533 10.368-5.675 14.165-18.603 8.533-28.928l-250.496-459.179 250.453-459.136c5.632-10.368 1.835-23.296-8.533-28.971-3.2-1.707-6.699-2.56-10.197-2.56zM725.333 21.333c-7.552 0-14.891 4.011-18.688 11.136l-256 469.333c-3.499 6.315-3.499 14.080 0 20.437l256 469.333c5.632 10.325 18.645 14.165 28.928 8.533 10.368-5.675 14.165-18.603 8.533-28.928l-250.496-459.179 250.453-459.136c5.632-10.368 1.835-23.296-8.533-28.971-3.2-1.707-6.699-2.56-10.197-2.56z" />
<glyph unicode="&#xe907;" glyph-name="pli-arrow-out-right" d="M906.496 384c-4.651 0-9.429 1.536-13.355 4.651-9.216 7.339-10.667 20.736-3.285 29.995l74.581 93.355-74.581 93.312c-7.381 9.173-5.931 22.656 3.285 29.995 9.301 7.381 22.656 5.888 29.995-3.328l85.291-106.667c6.229-7.808 6.229-18.859 0-26.667l-85.291-106.667c-4.181-5.248-10.368-7.979-16.64-7.979zM970.923 490.667h-938.667c-11.733 0-21.333 9.557-21.333 21.333s9.6 21.333 21.333 21.333h938.667c11.733 0 21.333-9.557 21.333-21.333s-9.6-21.333-21.333-21.333z" />
<glyph unicode="&#xe908;" glyph-name="pli-arrow-right" d="M384 21.291c-3.456 0-6.955 0.896-10.197 2.645-10.368 5.675-14.165 18.603-8.533 28.971l250.453 459.093-250.453 459.179c-5.632 10.325-1.835 23.253 8.533 28.928 10.283 5.632 23.296 1.792 28.928-8.533l256-469.333c3.499-6.357 3.499-14.123 0-20.437l-256-469.333c-3.883-7.125-11.179-11.179-18.731-11.179z" />
<glyph unicode="&#xe909;" glyph-name="pli-arrow-right-2" d="M469.333 21.291c-3.456 0-6.955 0.896-10.197 2.645-10.368 5.675-14.165 18.603-8.533 28.971l250.453 459.093-250.453 459.136c-5.632 10.325-1.835 23.253 8.533 28.928 10.283 5.632 23.296 1.792 28.928-8.533l256-469.333c3.499-6.357 3.499-14.123 0-20.437l-256-469.333c-3.883-7.083-11.179-11.136-18.731-11.136zM298.667 21.291c-3.456 0-6.955 0.896-10.197 2.645-10.368 5.675-14.165 18.603-8.533 28.971l250.453 459.093-250.453 459.093c-5.632 10.325-1.835 23.253 8.533 28.928 10.283 5.632 23.296 1.792 28.928-8.533l256-469.333c3.499-6.357 3.499-14.123 0-20.437l-256-469.333c-3.883-7.040-11.179-11.093-18.731-11.093z" />
<glyph unicode="&#xe90a;" glyph-name="pli-arrow-up" d="M981.333 362.667c-3.456 0-6.955 0.853-10.197 2.688l-459.136 250.325-459.136-250.453c-10.283-5.675-23.339-1.835-28.971 8.491s-1.835 23.253 8.533 28.971l469.333 256c6.315 3.499 14.080 3.499 20.437 0l469.333-256c10.325-5.675 14.165-18.645 8.491-28.971-3.84-7.040-11.136-11.051-18.688-11.051z" />
<glyph unicode="&#xe90b;" glyph-name="pli-bag-coins" d="M766.080 533.333c-11.733 0-21.333 9.6-21.333 21.333v298.667c0 88.405-75.008 128-149.333 128h-42.667c-74.325 0-149.333-39.595-149.333-128v-298.667c0-11.733-9.557-21.333-21.333-21.333-11.733 0-21.333 9.6-21.333 21.333v298.667c0 100.48 79.019 170.667 192 170.667h42.667c113.024 0 192-70.187 192-170.667v-298.667c0-11.733-9.557-21.333-21.333-21.333zM659.413 0h-576c-6.869 0-13.312 3.285-17.323 8.875-4.011 5.547-5.077 12.715-2.859 19.2l213.333 640c2.859 8.704 11.008 14.592 20.181 14.592h554.667c9.259 0 17.493-6.016 20.352-14.848l89.173-278.144c3.584-11.221-2.645-23.211-13.781-26.837-11.264-3.499-23.253 2.688-26.837 13.824l-84.48 263.253h-523.733l-199.125-597.333h546.432c11.776 0 21.333-9.6 21.333-21.333s-9.557-21.248-21.333-21.248zM813.824 67.968c-48 0-80.299 28.331-80.299 70.443 0 11.691 9.557 21.333 21.333 21.333s21.333-9.643 21.333-21.333c0-25.088 26.325-27.776 37.632-27.776s37.589 2.688 37.589 27.776c0 15.104-3.157 18.133-37.632 35.072l-18.645 9.301c-34.475 16.896-61.568 30.336-61.568 73.472 0 41.771 33.024 70.869 80.299 70.869 47.488 0 79.403-28.501 79.403-70.869 0-11.733-9.6-21.333-21.333-21.333-11.776 0-21.333 9.6-21.333 21.333 0 25.472-25.771 28.203-36.736 28.203-11.307 0-37.632-2.731-37.632-28.203 0-15.147 3.157-18.176 37.76-35.157l18.688-9.259c34.347-16.896 61.397-30.336 61.397-73.429 0-42.112-32.256-70.443-80.256-70.443zM811.733 330.667c-5.547 0-11.093 2.133-14.933 6.016-4.309 4.352-6.4 9.771-6.4 15.317s2.133 11.093 6.4 15.019c7.68 8.021 21.76 8.021 29.824 0.469 4.309-4.693 6.4-9.813 6.4-15.36s-2.133-10.667-5.973-15.019c-4.651-4.309-10.155-6.443-15.317-6.443zM790.315 352h42.667v-51.584h-42.667v51.584zM811.733 21.333c-5.547 0-11.093 2.133-14.933 6.016-4.309 4.651-6.4 9.771-6.4 15.317s2.133 10.667 5.973 15.019c8.96 8.448 22.613 8.021 30.293 0.469 4.309-4.395 6.4-9.813 6.4-15.36s-2.603-11.093-6.4-15.232c-3.84-4.096-9.387-6.229-14.933-6.229zM790.315 94.251h42.667v-51.584h-42.667v51.584z" />
<glyph unicode="&#xe90c;" glyph-name="pli-bell" d="M1002.667 128h-981.333c-11.776 0-21.333 9.6-21.333 21.333v107.989c0 41.003 27.605 77.397 67.157 88.576 29.44 8.235 60.843 31.872 60.843 208.811 0 211.755 172.288 384 384 384s384-172.245 384-384c0-176.896 31.403-200.533 60.885-208.811 39.552-11.136 67.115-47.531 67.115-88.576v-107.947c0-11.776-9.6-21.376-21.333-21.376zM42.667 170.667h938.667v86.656c0 21.973-14.848 41.515-36.011 47.403-67.072 18.859-91.989 86.613-91.989 249.941 0 188.203-153.131 341.333-341.333 341.333s-341.333-153.131-341.333-341.333c0-163.328-24.917-231.083-91.989-249.899-21.205-6.016-36.011-25.515-36.011-47.445v-86.656zM512 0c-82.347 0-149.333 66.987-149.333 149.333 0 11.733 9.557 21.333 21.333 21.333s21.333-9.6 21.333-21.333c0-58.795 47.872-106.667 106.667-106.667s106.667 47.872 106.667 106.667c0 11.733 9.6 21.333 21.333 21.333s21.333-9.6 21.333-21.333c0-82.347-66.987-149.333-149.333-149.333zM596.736 885.931c-0.811 0-1.579 0.043-2.432 0.085-11.648 1.365-20.139 11.904-18.773 23.637 0.299 2.517 0.469 5.12 0.469 7.68 0 35.328-28.715 64-64 64s-64-28.715-64-64c0-2.603 0.171-5.12 0.427-7.552 1.365-11.691-7.040-22.272-18.731-23.637-11.733-1.536-22.315 7.083-23.637 18.731-0.469 4.053-0.725 8.192-0.725 12.459 0 58.795 47.872 106.667 106.667 106.667s106.667-47.872 106.667-106.667c0-4.224-0.256-8.363-0.768-12.459-1.195-10.923-10.411-18.944-21.163-18.944z" />
<glyph unicode="&#xe90d;" glyph-name="pli-building" d="M896 0h-768c-11.733 0-21.333 9.6-21.333 21.333v853.333c0 11.776 9.6 21.333 21.333 21.333h768c11.733 0 21.333-9.557 21.333-21.333v-853.333c0-11.733-9.6-21.333-21.333-21.333zM149.333 42.667h725.333v810.667h-725.333v-810.667zM768 853.333h-512c-11.733 0-21.333 9.557-21.333 21.333v128c0 11.776 9.6 21.333 21.333 21.333h512c11.733 0 21.333-9.557 21.333-21.333v-128c0-11.776-9.6-21.333-21.333-21.333zM277.333 896h469.333v85.333h-469.333v-85.333zM469.333 597.333h-213.333c-11.733 0-21.333 9.557-21.333 21.333v170.667c0 11.776 9.6 21.333 21.333 21.333h213.333c11.733 0 21.333-9.557 21.333-21.333v-170.667c0-11.776-9.6-21.333-21.333-21.333zM277.333 640h170.667v128h-170.667v-128zM768 597.333h-213.333c-11.733 0-21.333 9.557-21.333 21.333v170.667c0 11.776 9.6 21.333 21.333 21.333h213.333c11.733 0 21.333-9.557 21.333-21.333v-170.667c0-11.776-9.6-21.333-21.333-21.333zM576 640h170.667v128h-170.667v-128zM469.333 341.333h-213.333c-11.733 0-21.333 9.6-21.333 21.333v170.667c0 11.776 9.6 21.333 21.333 21.333h213.333c11.733 0 21.333-9.557 21.333-21.333v-170.667c0-11.733-9.6-21.333-21.333-21.333zM277.333 384h170.667v128h-170.667v-128zM768 341.333h-213.333c-11.733 0-21.333 9.6-21.333 21.333v170.667c0 11.776 9.6 21.333 21.333 21.333h213.333c11.733 0 21.333-9.557 21.333-21.333v-170.667c0-11.733-9.6-21.333-21.333-21.333zM576 384h170.667v128h-170.667v-128zM469.333 85.333h-213.333c-11.733 0-21.333 9.6-21.333 21.333v170.667c0 11.733 9.6 21.333 21.333 21.333h213.333c11.733 0 21.333-9.6 21.333-21.333v-170.667c0-11.733-9.6-21.333-21.333-21.333zM277.333 128h170.667v128h-170.667v-128zM768 85.333h-213.333c-11.733 0-21.333 9.6-21.333 21.333v170.667c0 11.733 9.6 21.333 21.333 21.333h213.333c11.733 0 21.333-9.6 21.333-21.333v-170.667c0-11.733-9.6-21.333-21.333-21.333zM576 128h170.667v128h-170.667v-128z" />
<glyph unicode="&#xe90e;" glyph-name="pli-calendar-4" d="M938.667 8.533h-853.333c-47.036 0-85.333 38.298-85.333 85.333v750.933c0 47.036 38.298 85.333 85.333 85.333h853.333c47.036 0 85.333-38.298 85.333-85.333v-750.933c0-47.036-38.298-85.333-85.333-85.333zM85.333 896c-28.228 0-51.2-22.972-51.2-51.2v-750.933c0-28.228 22.972-51.2 51.2-51.2h853.333c28.228 0 51.2 22.972 51.2 51.2v750.933c0 28.228-22.972 51.2-51.2 51.2h-853.333zM256 844.8c-9.421 0-17.067 7.646-17.067 17.067v136.533c0 9.421 7.646 17.067 17.067 17.067s17.067-7.646 17.067-17.067v-136.533c0-9.421-7.646-17.067-17.067-17.067zM768 844.8c-9.387 0-17.067 7.646-17.067 17.067v136.533c0 9.421 7.68 17.067 17.067 17.067s17.067-7.646 17.067-17.067v-136.533c0-9.421-7.68-17.067-17.067-17.067zM853.333 725.333h-682.667c-9.421 0-17.067 7.646-17.067 17.067s7.646 17.067 17.067 17.067h682.667c9.387 0 17.067-7.646 17.067-17.067s-7.68-17.067-17.067-17.067zM307.2 588.8h-136.533c-9.421 0-17.067 7.646-17.067 17.067s7.646 17.067 17.067 17.067h136.533c9.421 0 17.067-7.646 17.067-17.067s-7.646-17.067-17.067-17.067zM580.267 588.8h-136.533c-9.421 0-17.067 7.646-17.067 17.067s7.646 17.067 17.067 17.067h136.533c9.387 0 17.067-7.646 17.067-17.067s-7.68-17.067-17.067-17.067zM853.333 588.8h-136.533c-9.387 0-17.067 7.646-17.067 17.067s7.68 17.067 17.067 17.067h136.533c9.387 0 17.067-7.646 17.067-17.067s-7.68-17.067-17.067-17.067zM307.2 452.267h-136.533c-9.421 0-17.067 7.68-17.067 17.067s7.646 17.067 17.067 17.067h136.533c9.421 0 17.067-7.68 17.067-17.067s-7.646-17.067-17.067-17.067zM580.267 452.267h-136.533c-9.421 0-17.067 7.68-17.067 17.067s7.646 17.067 17.067 17.067h136.533c9.387 0 17.067-7.68 17.067-17.067s-7.68-17.067-17.067-17.067zM853.333 452.267h-136.533c-9.387 0-17.067 7.68-17.067 17.067s7.68 17.067 17.067 17.067h136.533c9.387 0 17.067-7.68 17.067-17.067s-7.68-17.067-17.067-17.067zM307.2 315.733h-136.533c-9.421 0-17.067 7.68-17.067 17.067s7.646 17.067 17.067 17.067h136.533c9.421 0 17.067-7.68 17.067-17.067s-7.646-17.067-17.067-17.067zM580.267 315.733h-136.533c-9.421 0-17.067 7.68-17.067 17.067s7.646 17.067 17.067 17.067h136.533c9.387 0 17.067-7.68 17.067-17.067s-7.68-17.067-17.067-17.067zM853.333 315.733h-136.533c-9.387 0-17.067 7.68-17.067 17.067s7.68 17.067 17.067 17.067h136.533c9.387 0 17.067-7.68 17.067-17.067s-7.68-17.067-17.067-17.067zM307.2 179.2h-136.533c-9.421 0-17.067 7.68-17.067 17.067s7.646 17.067 17.067 17.067h136.533c9.421 0 17.067-7.68 17.067-17.067s-7.646-17.067-17.067-17.067zM580.267 179.2h-136.533c-9.421 0-17.067 7.68-17.067 17.067s7.646 17.067 17.067 17.067h136.533c9.387 0 17.067-7.68 17.067-17.067s-7.68-17.067-17.067-17.067zM853.333 179.2h-136.533c-9.387 0-17.067 7.68-17.067 17.067s7.68 17.067 17.067 17.067h136.533c9.387 0 17.067-7.68 17.067-17.067s-7.68-17.067-17.067-17.067z" />
<glyph unicode="&#xe90f;" glyph-name="pli-camera-2" d="M874.667 149.333h-725.333c-82.347 0-149.333 66.987-149.333 149.333v341.333c0 82.347 66.987 149.333 149.333 149.333h178.987l38.059 73.771c3.669 7.083 10.965 11.563 18.944 11.563h257.323c8.021 0 15.317-4.437 18.944-11.563l38.059-73.771h175.019c82.347 0 149.333-66.987 149.333-149.333v-341.333c0-82.347-66.987-149.333-149.333-149.333zM149.333 746.667c-58.795 0-106.667-47.829-106.667-106.667v-341.333c0-58.837 47.872-106.667 106.667-106.667h725.333c58.795 0 106.667 47.829 106.667 106.667v341.333c0 58.837-47.872 106.667-106.667 106.667h-187.989c-7.979 0-15.317 4.437-18.901 11.563l-38.059 73.771h-231.339l-38.059-73.771c-3.669-7.083-10.965-11.563-18.944-11.563h-192.043zM512 256c-129.408 0-234.667 105.301-234.667 234.667s105.259 234.667 234.667 234.667 234.667-105.301 234.667-234.667-105.259-234.667-234.667-234.667zM512 682.667c-105.856 0-192-86.187-192-192s86.144-192 192-192c105.813 0 192 86.187 192 192s-86.187 192-192 192zM192 768c-11.776 0-21.333 9.557-21.333 21.333v42.667c0 11.776 9.557 21.333 21.333 21.333s21.333-9.557 21.333-21.333v-42.667c0-11.776-9.557-21.333-21.333-21.333zM896 661.333h-42.667c-11.733 0-21.333 9.557-21.333 21.333s9.6 21.333 21.333 21.333h42.667c11.733 0 21.333-9.557 21.333-21.333s-9.6-21.333-21.333-21.333z" />
<glyph unicode="&#xe910;" glyph-name="pli-check" d="M266.667 714.624h-213.333c-11.776 0-21.333 9.6-21.333 21.333v213.333c0 11.776 9.557 21.333 21.333 21.333h213.333c11.776 0 21.333-9.557 21.333-21.333v-213.333c0-11.733-9.557-21.333-21.333-21.333zM74.667 757.291h170.667v170.667h-170.667v-170.667zM160 778.624c-1.579 0-3.2 0.171-4.736 0.597-6.272 1.408-11.563 5.632-14.421 11.392l-40.875 83.541c-5.163 10.581-0.811 23.339 9.771 28.544 10.624 5.205 23.339 0.768 28.544-9.771l29.269-59.819 196.181 154.368c9.259 7.253 22.699 5.675 29.952-3.584 7.253-9.301 5.675-22.656-3.584-29.952l-216.917-170.667c-3.797-3.072-8.448-4.651-13.184-4.651zM266.667 373.291h-213.333c-11.776 0-21.333 9.6-21.333 21.333v213.333c0 11.776 9.557 21.333 21.333 21.333h213.333c11.776 0 21.333-9.557 21.333-21.333v-213.333c0-11.733-9.557-21.333-21.333-21.333zM74.667 415.957h170.667v170.667h-170.667v-170.667zM160 437.291c-1.579 0-3.2 0.171-4.736 0.597-6.272 1.408-11.563 5.632-14.421 11.435l-40.875 83.541c-5.163 10.581-0.811 23.339 9.771 28.544 10.624 5.205 23.339 0.811 28.544-9.771l29.269-59.819 196.181 154.368c9.259 7.253 22.699 5.632 29.952-3.584 7.253-9.301 5.675-22.656-3.584-29.952l-216.917-170.667c-3.797-3.115-8.448-4.693-13.184-4.693zM266.667 31.957h-213.333c-11.776 0-21.333 9.6-21.333 21.333v213.333c0 11.776 9.557 21.333 21.333 21.333h213.333c11.776 0 21.333-9.557 21.333-21.333v-213.333c0-11.733-9.557-21.333-21.333-21.333zM74.667 74.624h170.667v170.667h-170.667v-170.667zM970.667 202.624h-469.333c-11.776 0-21.333 9.6-21.333 21.333 0 11.776 9.557 21.333 21.333 21.333h469.333c11.733 0 21.333-9.557 21.333-21.333 0-11.733-9.6-21.333-21.333-21.333zM970.667 74.624h-469.333c-11.776 0-21.333 9.6-21.333 21.333 0 11.776 9.557 21.333 21.333 21.333h469.333c11.733 0 21.333-9.557 21.333-21.333 0-11.733-9.6-21.333-21.333-21.333zM970.667 543.957h-469.333c-11.776 0-21.333 9.6-21.333 21.333 0 11.776 9.557 21.333 21.333 21.333h469.333c11.733 0 21.333-9.557 21.333-21.333 0-11.733-9.6-21.333-21.333-21.333zM970.667 415.957h-469.333c-11.776 0-21.333 9.6-21.333 21.333 0 11.776 9.557 21.333 21.333 21.333h469.333c11.733 0 21.333-9.557 21.333-21.333 0-11.733-9.6-21.333-21.333-21.333zM970.667 885.291h-469.333c-11.776 0-21.333 9.6-21.333 21.333 0 11.776 9.557 21.333 21.333 21.333h469.333c11.733 0 21.333-9.557 21.333-21.333 0-11.733-9.6-21.333-21.333-21.333zM970.667 757.291h-469.333c-11.776 0-21.333 9.6-21.333 21.333 0 11.776 9.557 21.333 21.333 21.333h469.333c11.733 0 21.333-9.557 21.333-21.333 0-11.733-9.6-21.333-21.333-21.333z" />
<glyph unicode="&#xe911;" glyph-name="pli-check2" d="M968.243 953.651c-10.445-0.358-19.558-6.042-24.576-14.438l-525.312-791.45-341.504 341.504c-5.427 5.427-12.851 8.755-21.146 8.755-16.486 0-29.85-13.363-29.85-29.85 0-8.243 3.328-15.718 8.755-21.146l367.411-367.258c5.274-5.325 12.544-8.653 20.531-8.858 0.205 0 0.41 0 0.614 0 10.291 0 19.405 5.222 24.781 13.158l545.331 822.016c3.635 4.915 5.837 11.059 5.837 17.715 0 16.486-13.363 29.85-29.85 29.85-0.358 0-0.666 0-1.024 0z" />
<glyph unicode="&#xe912;" glyph-name="pli-checked-user" d="M517.376 282.667c-126.507 0-229.589 137.387-239.232 258.901-28.416 8.021-54.101 31.531-54.101 61.099v85.333c0 26.667 25.813 45.909 42.667 55.637v72.363c0 80.896 64.683 146.944 144.896 149.248 17.067 6.869 84.693 32.085 153.771 32.085 110.037 0 170.667-64.427 170.667-181.333v-65.877c42.667-8.32 42.667-42.581 42.667-62.123v-85.333c0-29.696-13.483-51.84-35.243-60.245-8.192-126.080-102.187-259.755-226.091-259.755zM565.376 954.667c-69.205 0-140.245-29.952-141.013-30.293-2.688-1.109-5.504-1.707-8.32-1.707-58.837 0-106.667-47.829-106.667-106.667v-85.333c0-8.363-4.949-16-12.587-19.456-15.147-6.869-29.227-18.645-30.080-23.381v-85.163c0-9.387 17.963-21.333 32-21.333 11.733 0 21.333-9.557 21.333-21.333 0-105.643 91.051-234.667 197.333-234.667 103.68 0 184.021 126.165 184.021 234.667 0 11.776 9.643 21.333 21.333 21.333 8.832 0 13.355 7.168 13.355 21.333v85.333c0 21.333 0 21.333-21.333 21.333-11.776 0-21.333 9.557-21.333 21.333v85.333c-0.043 93.312-41.856 138.667-128.043 138.667zM778.709 26.667c-5.461 0-10.923 2.091-15.104 6.229l-85.333 85.333c-8.32 8.235-8.32 21.845 0 30.165 8.235 8.235 21.845 8.235 30.165 0l70.229-70.229 155.563 155.563c8.32 8.235 21.931 8.235 30.165 0 8.32-8.32 8.32-21.931 0-30.165l-170.667-170.667c-4.096-4.139-9.557-6.229-15.019-6.229zM74.709 26.667c-11.733 0-21.333 9.557-21.333 21.333 0 123.563 98.688 213.333 234.667 213.333h52.565l56.832 84.736c6.443 9.771 19.755 12.416 29.483 5.845 9.771-6.528 12.416-19.797 5.931-29.568l-63.104-94.208c-3.968-5.931-10.581-9.472-17.707-9.472h-64c-112.981 0-192-70.187-192-170.667 0-11.776-9.6-21.333-21.333-21.333z" />
<glyph unicode="&#xe913;" glyph-name="pli-clock" d="M510.677 21.333c-223.488 0-405.333 181.845-405.333 405.333s181.803 405.333 405.333 405.333 405.333-181.845 405.333-405.333-181.888-405.333-405.333-405.333zM510.677 789.333c-200.021 0-362.667-162.688-362.667-362.667s162.688-362.667 362.667-362.667c199.979 0 362.667 162.688 362.667 362.667s-162.731 362.667-362.667 362.667zM916.011 0c-6.613 0-13.184 3.072-17.323 8.832l-106.667 147.499c-6.912 9.6-4.736 22.869 4.779 29.781 9.515 6.869 22.912 4.693 29.739-4.779l106.667-147.499c6.912-9.557 4.736-22.827-4.736-29.696-3.712-2.816-8.149-4.139-12.459-4.139zM105.301 0c-4.395 0-8.704 1.323-12.459 4.096-9.6 6.912-11.691 20.309-4.779 29.739l106.667 147.499c6.912 9.6 20.224 11.648 29.781 4.736s11.648-20.309 4.736-29.739l-106.667-147.499c-4.181-5.76-10.709-8.832-17.28-8.832zM788.808 828.274l34.138-25.591-63.979-85.344-34.138 25.591 63.979 85.344zM239.765 823.467l64-85.333-34.133-25.6-64 85.333 34.133 25.6zM510.677 405.333c-5.461 0-10.923 2.091-15.104 6.229-8.277 8.235-8.277 21.845 0 30.165l213.333 213.333c8.32 8.235 21.888 8.235 30.165 0 8.32-8.32 8.32-21.931 0-30.165l-213.333-213.333c-4.139-4.139-9.6-6.229-15.061-6.229zM510.677 405.333c-5.461 0-10.923 2.091-15.104 6.229l-128 128c-8.277 8.235-8.277 21.845 0 30.165 8.32 8.235 21.888 8.235 30.165 0l128-128c8.32-8.32 8.32-21.931 0-30.165-4.139-4.139-9.6-6.229-15.061-6.229zM213.333 981.333c55.125 0 105.131-25.813 136.917-68.48-110.933-36.907-207.403-112.085-270.848-210.901-24.32 30.165-38.144 68.181-38.144 107.563 0.085 94.635 77.227 171.819 172.075 171.819zM213.333 1024c-118.571 0-214.656-96.085-214.656-214.656 0-72.576 36.267-136.491 91.435-175.232 62.763 127.061 180.907 221.653 323.243 251.648-30.891 80.64-108.459 138.24-200.021 138.24v0zM810.667 981.333c94.848 0 171.947-77.184 171.947-171.989 0-40.32-14.293-79.061-39.552-109.397-62.933 99.157-159.104 174.848-269.952 212.267 31.787 42.965 82.005 69.12 137.557 69.12zM810.667 1024c-91.776 0-169.557-57.813-200.192-138.837 141.824-30.763 259.371-125.653 321.536-252.757 56.277 38.699 93.355 103.424 93.355 176.896-0.085 118.613-96.171 214.699-214.699 214.699v0z" />
<glyph unicode="&#xe914;" glyph-name="pli-coding" d="M301.739 228.565c-5.461 0-10.923 2.091-15.104 6.229l-262.059 262.101c-8.32 8.277-8.32 21.888 0 30.165l262.059 262.144c8.32 8.32 21.888 8.32 30.165 0 8.32-8.32 8.32-21.845 0-30.165l-246.997-246.997 246.997-246.997c8.32-8.32 8.32-21.845 0-30.165-4.139-4.224-9.6-6.315-15.061-6.315zM722.304 228.565c-5.461 0-10.923 2.091-15.104 6.229-8.32 8.32-8.32 21.845 0 30.165l246.997 247.040-246.997 246.997c-8.32 8.32-8.32 21.845 0 30.165s21.845 8.32 30.165 0l262.059-262.144c8.32-8.277 8.32-21.888 0-30.165l-262.059-262.101c-4.139-4.096-9.6-6.187-15.061-6.187zM408.405 213.333c-2.603 0-5.163 0.512-7.723 1.408-10.965 4.267-16.469 16.597-12.203 27.563l213.333 554.667c4.224 10.965 16.597 16.469 27.563 12.245 10.965-4.267 16.469-16.597 12.245-27.563l-213.333-554.667c-3.243-8.405-11.307-13.653-19.883-13.653z" />
<glyph unicode="&#xe915;" glyph-name="pli-coin" d="M512 853.333c188.203 0 341.333-153.131 341.333-341.333s-153.131-341.333-341.333-341.333-341.333 153.131-341.333 341.333 153.131 341.333 341.333 341.333zM512 896c-212.096 0-384-171.904-384-384s171.904-384 384-384c212.096 0 384 171.904 384 384s-171.904 384-384 384v0zM513.792 322.987c-67.456 0-112.768 39.253-112.768 97.579 0 11.691 9.557 21.333 21.333 21.333s21.333-9.643 21.333-21.333c0-50.901 53.675-54.912 70.101-54.912s70.144 4.011 70.144 54.912c0 31.744-12.416 39.083-64.853 64.939l-29.355 14.549c-51.499 25.429-88.704 43.776-88.704 103.253 0 58.709 45.312 98.176 112.768 98.176 66.688 0 111.488-39.467 111.488-98.176 0-11.776-9.557-21.333-21.333-21.333s-21.333 9.557-21.333 21.333c0 51.499-52.693 55.509-68.821 55.509-33.877 0-70.101-14.592-70.101-55.509 0-31.787 12.416-39.125 64.896-64.981l29.397-14.592c51.413-25.387 88.576-43.691 88.576-103.168 0.043-58.325-45.312-97.579-112.768-97.579zM512 661.333c-11.776 0-21.333 9.557-21.333 21.333v42.667c0 11.776 9.557 21.333 21.333 21.333s21.333-9.557 21.333-21.333v-42.667c0-11.776-9.557-21.333-21.333-21.333zM512 277.333c-11.776 0-21.333 9.6-21.333 21.333v42.667c0 11.733 9.557 21.333 21.333 21.333s21.333-9.6 21.333-21.333v-42.667c0-11.733-9.557-21.333-21.333-21.333zM512 981.333c258.731 0 469.333-210.56 469.333-469.333 0-258.816-210.603-469.333-469.333-469.333-258.773 0-469.333 210.517-469.333 469.333 0 258.773 210.56 469.333 469.333 469.333zM512 1024c-282.752 0-512-229.248-512-512s229.248-512 512-512 512 229.248 512 512-229.248 512-512 512v0z" />
<glyph unicode="&#xe916;" glyph-name="pli-computer-secure" d="M917.333 213.333h-810.667c-58.795 0-106.667 47.829-106.667 106.667v512c0 58.837 47.872 106.667 106.667 106.667h810.667c58.795 0 106.667-47.829 106.667-106.667v-512c0-58.837-47.872-106.667-106.667-106.667zM106.667 896c-35.285 0-64-28.715-64-64v-512c0-35.285 28.715-64 64-64h810.667c35.285 0 64 28.715 64 64v512c0 35.285-28.715 64-64 64h-810.667zM512 427.989c-95.701 0-170.667 79.061-170.667 179.925v175.232c0 5.931 2.432 11.52 6.699 15.445 4.224 4.139 9.941 6.528 15.872 5.888 75.136-4.437 98.56 9.771 133.12 43.904 8.32 8.235 21.675 8.235 29.995 0 35.243-34.688 61.611-48.256 133.077-43.904 5.845 0.299 11.605-1.835 15.872-5.845s6.699-9.643 6.699-15.488v-175.232c0-100.864-74.965-179.925-170.667-179.925zM384 761.173v-153.259c0-76.971 56.235-137.259 128-137.259s128 60.288 128 137.259v153.216c-63.744-0.043-95.403 14.72-127.915 42.965-28.672-25.6-63.061-45.013-128.085-42.923zM981.333 341.333h-938.667c-11.776 0-21.333 9.6-21.333 21.333s9.557 21.333 21.333 21.333h938.667c11.733 0 21.333-9.6 21.333-21.333s-9.6-21.333-21.333-21.333zM448 106.667c-11.776 0-21.333 9.6-21.333 21.333v85.333c0 11.733 9.557 21.333 21.333 21.333s21.333-9.6 21.333-21.333v-85.333c0-11.733-9.557-21.333-21.333-21.333zM576 106.667c-11.733 0-21.333 9.6-21.333 21.333v85.333c0 11.733 9.6 21.333 21.333 21.333s21.333-9.6 21.333-21.333v-85.333c0-11.733-9.6-21.333-21.333-21.333zM682.667 85.333h-341.333c-11.776 0-21.333 9.6-21.333 21.333s9.557 21.333 21.333 21.333h341.333c11.733 0 21.333-9.6 21.333-21.333s-9.6-21.333-21.333-21.333z" />
<glyph unicode="&#xe917;" glyph-name="pli-consulting" d="M714.155 42.795h-116.821v42.667h116.821c18.645 0 53.845 38.4 53.845 58.752v282.581h42.667v-282.581c0-40.96-50.816-101.419-96.512-101.419zM789.248 523.221c-8.149 0-15.915 4.651-19.456 12.544-12.075 26.795-19.499 46.72-22.613 60.885-17.067 77.141-74.069 256.427-235.179 256.427-161.067 0-218.112-179.285-235.179-256.427-2.688-12.075-8.405-28.245-17.536-49.323-4.693-10.752-17.28-15.744-28.032-11.179-10.837 4.608-15.829 17.152-11.136 27.989 9.856 22.827 13.611 35.285 15.019 41.771 40.789 184.064 141.653 289.792 276.821 289.792s236.075-105.728 276.821-289.792c1.707-7.723 6.443-22.955 19.84-52.48 4.864-10.752 0.085-23.381-10.667-28.245-2.773-1.408-5.803-1.963-8.704-1.963zM789.333 661.461c-11.733 0-21.333 9.6-21.333 21.333v47.061c0 136.192-117.248 251.349-256 251.349s-256-115.029-256-251.349v-47.104c0-11.733-9.557-21.333-21.333-21.333s-21.333 9.643-21.333 21.376v47.061c0 159.317 136.789 294.016 298.667 294.016s298.667-134.571 298.667-294.016v-47.104c0-11.691-9.6-21.291-21.333-21.291zM512 171.776c-117.632 0-213.333 104.021-213.333 232.021v150.997c0 11.733 9.557 21.333 21.333 21.333s21.333-9.6 21.333-21.333v-150.997c0-104.405 76.544-189.355 170.667-189.355s170.667 84.821 170.667 189.355v150.997c0 11.733 9.6 21.333 21.333 21.333s21.333-9.6 21.333-21.333v-150.997c0-127.915-95.701-232.021-213.333-232.021zM234.667 384.128h-64c-47.061 0-85.333 38.229-85.333 85.333v128c0 47.104 38.272 85.333 85.333 85.333h64c11.776 0 21.333-9.6 21.333-21.333v-256c0-11.733-9.557-21.333-21.333-21.333zM170.667 640.128c-23.509 0-42.667-19.115-42.667-42.667v-128c0-23.552 19.157-42.667 42.667-42.667h42.667v213.333h-42.667zM853.333 384.128h-64c-11.733 0-21.333 9.6-21.333 21.333v256c0 11.733 9.6 21.333 21.333 21.333h64c47.104 0 85.333-38.229 85.333-85.333v-128c0-47.104-38.229-85.333-85.333-85.333zM810.667 426.795h42.667c23.509 0 42.667 19.115 42.667 42.667v128c0 23.552-19.157 42.667-42.667 42.667h-42.667v-213.333zM576 0.128h-128c-35.285 0-64 28.715-64 64s28.715 64 64 64h128c35.285 0 64-28.715 64-64s-28.715-64-64-64zM448 85.461c-11.776 0-21.333-9.6-21.333-21.333s9.557-21.333 21.333-21.333h128c11.733 0 21.333 9.6 21.333 21.333s-9.6 21.333-21.333 21.333h-128zM762.667 533.461c-56.235 0-153.131 63.915-200.235 128-63.659-124.032-303.616-128-306.432-128-11.776 0-21.333 9.6-21.333 21.333s9.557 21.333 21.333 21.333c58.965 0 279.125 25.685 279.125 151.125 0 11.776 9.557 21.333 21.333 21.333s21.333-9.557 21.333-21.333c0-46.635 127.872-151.125 184.875-151.125 11.733 0 21.333-9.6 21.333-21.333s-9.6-21.333-21.333-21.333z" />
<glyph unicode="&#xe918;" glyph-name="pli-credit-card-2" d="M853.333 149.333h-682.667c-94.123 0-170.667 76.544-170.667 170.667v384c0 94.123 76.544 170.667 170.667 170.667h682.667c94.123 0 170.667-76.544 170.667-170.667v-384c0-94.123-76.544-170.667-170.667-170.667zM170.667 832c-70.571 0-128-57.429-128-128v-384c0-70.571 57.429-128 128-128h682.667c70.571 0 128 57.429 128 128v384c0 70.571-57.429 128-128 128h-682.667zM42.667 704h938.667v-85.333h-938.667v85.333zM128 490.667h170.667v-42.667h-170.667v42.667zM128 405.333h341.333v-42.667h-341.333v42.667z" />
<glyph unicode="&#xe919;" glyph-name="pli-cross" d="M123.099 946.103l-45.202-45.202 388.901-388.901-388.901-388.901 45.202-45.202 388.901 388.901 388.901-388.901 45.202 45.202-388.901 388.901 388.901 388.901-45.202 45.202-388.901-388.901-388.901 388.901z" />
<glyph unicode="&#xe91a;" glyph-name="pli-data-settings" d="M874.667 42.667h-725.333c-82.347 0-149.333 66.987-149.333 149.333v42.667c0 82.347 66.987 149.333 149.333 149.333h725.333c82.347 0 149.333-66.987 149.333-149.333v-42.667c0-82.347-66.987-149.333-149.333-149.333zM149.333 341.333c-58.795 0-106.667-47.872-106.667-106.667v-42.667c0-58.795 47.872-106.667 106.667-106.667h725.333c58.837 0 106.667 47.872 106.667 106.667v42.667c0 58.795-47.829 106.667-106.667 106.667h-725.333zM842.667 149.333c-35.285 0-64 28.715-64 64s28.715 64 64 64 64-28.715 64-64-28.715-64-64-64zM842.667 234.667c-11.733 0-21.333-9.6-21.333-21.333s9.6-21.333 21.333-21.333 21.333 9.6 21.333 21.333-9.6 21.333-21.333 21.333zM38.997 277.931c-0.939 0-1.877 0.085-2.859 0.171-11.648 1.579-19.84 12.331-18.304 24.021l72.32 536.875c10.923 81.152 80.896 142.336 162.773 142.336h517.803c82.091 0 152.021-61.355 162.773-142.677l70.656-533.803c1.536-11.648-6.656-22.4-18.475-23.936-11.563-1.493-22.272 6.571-23.979 18.347l-70.613 533.76c-7.936 60.203-59.776 105.643-120.491 105.643h-517.675c-60.587 0-112.384-45.355-120.491-105.387l-72.32-536.875c-1.451-10.752-10.581-18.475-21.12-18.475zM512 405.333c-31.744 0-58.112 23.211-63.147 53.504-6.955 2.432-13.739 5.248-20.309 8.405-24.533-17.579-60.843-14.891-82.517 6.827-12.075 11.989-18.688 28.075-18.731 45.227 0 13.525 4.181 26.496 11.947 37.291-3.2 6.571-5.973 13.355-8.405 20.267-30.293 5.035-53.504 31.445-53.504 63.147s23.211 58.112 53.504 63.147c2.432 6.912 5.205 13.696 8.405 20.267-7.765 10.752-11.947 23.723-11.947 37.291 0 17.109 6.656 33.152 18.773 45.227 21.632 21.589 58.069 24.32 82.475 6.827 6.571 3.157 13.355 5.973 20.309 8.363 5.035 30.336 31.403 53.547 63.147 53.547s58.069-23.211 63.147-53.547c6.912-2.432 13.696-5.205 20.309-8.363 24.448 17.493 60.843 14.805 82.475-6.827 12.075-12.032 18.688-28.075 18.731-45.227 0-13.525-4.181-26.496-11.947-37.291 3.2-6.571 6.059-13.355 8.405-20.267 30.293-5.035 53.504-31.403 53.504-63.147 0-31.701-23.211-58.112-53.504-63.147-2.475-6.912-5.205-13.653-8.405-20.267 7.723-10.709 11.904-23.68 11.904-37.291 0-17.109-6.656-33.109-18.773-45.227-21.547-21.589-57.984-24.363-82.475-6.827-6.571-3.157-13.355-6.016-20.309-8.405-4.992-30.293-31.317-53.504-63.061-53.504zM424.491 514.987c3.755 0 7.509-0.981 10.923-3.029 12.288-7.339 25.685-12.928 39.723-16.512 10.368-2.645 17.152-12.501 15.915-23.125-0.384-14.763 9.173-24.32 20.949-24.32s21.333 9.6 21.333 21.333c-1.237 10.624 5.163 23.509 15.531 26.112 14.037 3.584 27.392 9.131 39.68 16.512 9.131 5.504 20.949 3.371 27.605-5.035 0.768-0.896 2.645-3.755 3.157-4.736 4.565-3.883 20.395-6.016 28.416 2.048 4.011 4.053 6.229 9.387 6.229 15.061 0 5.717-2.261 11.093-6.229 15.104 0.427-0.768-1.152 0.213-2.731 1.493-8.277 6.656-10.368 18.389-4.949 27.52 7.424 12.416 12.971 25.771 16.555 39.68 2.645 10.368 12.672 17.152 23.083 15.957 14.080-0.469 24.32 9.173 24.32 20.949 0 11.733-9.6 21.333-21.333 21.333-10.453-1.237-23.509 5.291-26.069 15.531-3.584 14.037-9.173 27.392-16.555 39.637-5.589 9.301-3.328 21.291 5.248 27.904 0.896 0.683 3.755 2.475 4.693 3.029 1.835 2.219 4.053 7.595 4.053 13.312 0 5.675-2.219 11.008-6.229 15.019-8.107 8.107-22.187 8.021-30.251 0 0.768 0.341-0.085-1.109-1.323-2.688-6.656-8.363-18.517-10.539-27.691-5.035-12.203 7.339-25.557 12.885-39.68 16.512-10.368 2.688-17.109 12.544-15.915 23.125 0.384 14.72-9.173 24.32-20.949 24.32s-21.333-9.6-21.333-21.333c1.237-10.624-5.163-23.467-15.488-26.112-14.165-3.627-27.52-9.173-39.723-16.512-9.301-5.547-21.163-3.285-27.819 5.163-0.64 0.853-2.475 3.669-2.987 4.608-4.48 3.883-20.395 5.973-28.416-2.091-4.053-4.053-6.229-9.387-6.229-15.061 0-5.717 2.219-11.093 6.229-15.147-0.555 0.939 0.981 0 2.475-1.152 8.576-6.571 10.837-18.603 5.248-27.904-7.339-12.245-12.885-25.6-16.512-39.637-2.603-10.24-12.501-17.024-22.869-15.957-16.256 0.597-24.619-9.173-24.619-20.907s9.557-21.333 21.333-21.333c10.837 1.237 23.509-5.163 26.112-15.573 3.584-13.995 9.131-27.307 16.512-39.637 5.547-9.216 3.328-21.163-5.163-27.733-0.853-0.683-3.712-2.517-4.693-3.072-1.92-2.261-4.139-7.637-4.139-13.355 0-5.675 2.219-11.008 6.229-15.019 8.107-8.107 22.144-8.064 30.208 0-0.768-0.427 0.085 1.024 1.237 2.56 4.224 5.333 10.496 8.192 16.896 8.192zM512 561.749c-43.136 0-78.208 35.115-78.208 78.251 0 43.179 35.072 78.251 78.208 78.251s78.208-35.115 78.208-78.251c0-43.136-35.072-78.251-78.208-78.251zM512 675.584c-19.584 0-35.541-16-35.541-35.584s15.957-35.584 35.541-35.584 35.541 15.957 35.541 35.584-15.957 35.584-35.541 35.584z" />
<glyph unicode="&#xe91b;" glyph-name="pli-data-storage" d="M874.667 42.667h-725.333c-82.347 0-149.333 66.987-149.333 149.333v42.667c0 82.347 66.987 149.333 149.333 149.333h725.333c82.347 0 149.333-66.987 149.333-149.333v-42.667c0-82.347-66.987-149.333-149.333-149.333zM149.333 341.333c-58.795 0-106.667-47.872-106.667-106.667v-42.667c0-58.795 47.872-106.667 106.667-106.667h725.333c58.795 0 106.667 47.872 106.667 106.667v42.667c0 58.795-47.872 106.667-106.667 106.667h-725.333zM842.667 149.333c-35.285 0-64 28.715-64 64s28.715 64 64 64 64-28.715 64-64-28.715-64-64-64zM842.667 234.667c-11.733 0-21.333-9.6-21.333-21.333s9.6-21.333 21.333-21.333 21.333 9.6 21.333 21.333-9.6 21.333-21.333 21.333zM38.997 277.931c-0.939 0-1.877 0.085-2.859 0.171-11.648 1.579-19.84 12.331-18.304 24.021l72.32 536.875c10.923 81.152 80.896 142.336 162.773 142.336h517.803c82.091 0 152.021-61.355 162.816-142.677l70.699-533.803c1.536-11.648-6.656-22.4-18.389-23.936-11.648-1.579-22.357 6.656-23.936 18.347l-70.656 533.76c-7.936 60.203-59.733 105.643-120.533 105.643h-517.803c-60.587 0-112.384-45.355-120.491-105.387l-72.32-536.875c-1.451-10.752-10.581-18.475-21.12-18.475z" />
<glyph unicode="&#xe91c;" glyph-name="pli-download-from-cloud" d="M533.504 74.837c-11.733 0-21.333 9.6-21.333 21.333v384c0 11.776 9.6 21.333 21.333 21.333s21.333-9.557 21.333-21.333v-384c0-11.733-9.6-21.333-21.333-21.333zM531.925 74.837c-4.651 0-9.429 1.579-13.312 4.565l-103.083 81.749c-9.259 7.339-10.837 20.736-3.499 29.995 7.381 9.259 20.651 10.752 29.995 3.499l89.899-71.467 93.355 71.723c9.387 7.083 22.656 5.419 29.824-4.053 7.168-9.301 5.419-22.699-3.925-29.867l-106.667-81.749c-3.413-2.901-8.021-4.395-12.587-4.395zM832.043 224.171h-191.872c-11.733 0-21.333 9.6-21.333 21.333s9.6 21.333 21.333 21.333h191.872c82.389 0 149.291 66.901 149.291 149.12 0 53.632-28.331 101.931-75.733 128.981-7.083 4.053-11.307 11.861-10.667 20.053 0.64 9.003 1.067 15.147 1.067 21.461 0 176.427-143.488 320-319.915 320-146.347 0-273.707-99.072-309.845-241.024-2.603-9.813-11.563-16.427-21.675-16.043-2.432 0.128-4.565 0.384-6.827 0.768-0.256 0-0.512 0-0.811 0-108.629 0-194.432-85.931-194.432-191.403 0-105.771 86.229-191.829 192.043-191.829h192.256c11.733 0 21.333-9.557 21.333-21.333 0-11.733-9.6-21.333-21.333-21.333h-192.085c-129.408 0-234.709 105.173-234.709 234.496 0 127.573 102.571 231.723 229.717 234.411 46.549 151.637 186.453 256.043 346.368 256.043 199.936 0 362.581-162.688 362.581-362.667 0-3.883-0.128-7.765-0.341-11.605 53.163-35.541 85.675-95.275 85.675-158.933 0-105.771-86.101-191.829-191.957-191.829z" />
<glyph unicode="&#xe91d;" glyph-name="pli-download-window" d="M1002.667 128h-981.333c-11.776 0-21.333 9.6-21.333 21.333v725.333c0 11.733 9.557 21.333 21.333 21.333h981.333c11.733 0 21.333-9.6 21.333-21.333v-725.333c0-11.733-9.6-21.333-21.333-21.333zM42.667 170.667h938.667v682.667h-938.667v-682.667zM981.333 682.667h-938.667c-11.776 0-21.333 9.6-21.333 21.333s9.557 21.333 21.333 21.333h938.667c11.733 0 21.333-9.6 21.333-21.333s-9.6-21.333-21.333-21.333zM170.667 789.333c0-11.782-9.551-21.333-21.333-21.333s-21.333 9.551-21.333 21.333c0 11.782 9.551 21.333 21.333 21.333s21.333-9.551 21.333-21.333zM256 789.333c0-11.782-9.551-21.333-21.333-21.333s-21.333 9.551-21.333 21.333c0 11.782 9.551 21.333 21.333 21.333s21.333-9.551 21.333-21.333zM341.333 789.333c0-11.782-9.551-21.333-21.333-21.333s-21.333 9.551-21.333 21.333c0 11.782 9.551 21.333 21.333 21.333s21.333-9.551 21.333-21.333zM532.437 277.333c-4.736 0-9.472 1.579-13.397 4.651l-105.771 85.333c-9.173 7.424-10.624 20.736-3.2 29.995 7.381 9.173 20.821 10.667 29.995 3.243l92.416-74.496 92.459 74.496c9.173 7.424 22.571 5.973 29.995-3.243 7.339-9.173 5.973-22.528-3.243-29.995l-105.771-85.333c-3.968-3.072-8.704-4.651-13.483-4.651zM533.333 320c-11.776 0-21.333 9.6-21.333 21.333v213.333c0 11.733 9.557 21.333 21.333 21.333 11.733 0 21.333-9.6 21.333-21.333v-213.333c0-11.733-9.6-21.333-21.333-21.333z" />
<glyph unicode="&#xe91e;" glyph-name="pli-exclamation" d="M439.442 832l18.139-463.726h110.080l16.823 463.726h-145.115zM445.952 282.697v-90.697h132.096v90.697h-132.096z" />
<glyph unicode="&#xe91f;" glyph-name="pli-exclamation-circle" d="M512 1024c-282.405 0-512-229.595-512-512s229.595-512 512-512c282.405 0 512 229.595 512 512s-229.595 512-512 512zM512 959.342c247.442 0 447.342-199.899 447.342-447.342s-199.899-447.342-447.342-447.342c-247.442 0-447.342 199.899-447.342 447.342s199.899 447.342 447.342 447.342zM444.050 811.593l16.969-434.176h103.058l15.726 434.176h-135.826zM450.194 297.326v-84.919h123.685v84.919h-123.685z" />
<glyph unicode="&#xe920;" glyph-name="pli-facebook" d="M917.333 0h-213.333c-11.733 0-21.333 9.6-21.333 21.333v384c0 11.733 9.6 21.333 21.333 21.333h112.683l28.416 85.333h-141.099c-11.733 0-21.333 9.6-21.333 21.333v138.667c0 59.307 66.517 96 128 96h42.667v85.333h-85.333c-78.933 0-170.667-65.237-170.667-149.333v-170.667c0-11.733-9.6-21.333-21.333-21.333h-149.333v-85.333h149.333c11.733 0 21.333-9.6 21.333-21.333v-384c0-11.733-9.6-21.333-21.333-21.333h-469.333c-58.795 0-106.667 47.829-106.667 106.667v810.667c0 58.837 47.872 106.667 106.667 106.667h810.667c58.837 0 106.667-47.829 106.667-106.667v-810.667c0-58.837-47.829-106.667-106.667-106.667zM725.333 42.667h192c35.285 0 64 28.715 64 64v810.667c0 35.285-28.715 64-64 64h-810.667c-35.285 0-64-28.715-64-64v-810.667c0-35.285 28.715-64 64-64h448v341.333h-149.333c-11.776 0-21.333 9.6-21.333 21.333v128c0 11.733 9.557 21.333 21.333 21.333h149.333v149.333c0 109.867 112.683 192 213.333 192h106.667c11.733 0 21.333-9.6 21.333-21.333v-128c0-11.733-9.6-21.333-21.333-21.333h-64c-35.627 0-85.333-20.352-85.333-53.333v-117.333h149.333c6.869 0 13.355-3.285 17.237-8.875 4.096-5.547 5.163-12.715 2.987-19.2l-42.667-128c-2.901-8.704-11.136-14.592-20.309-14.592h-106.581v-341.333z" />
<glyph unicode="&#xe921;" glyph-name="pli-facebook-2" d="M554.667 0h-128c-11.733 0-21.333 9.6-21.333 21.333v405.333h-149.333c-11.733 0-21.333 9.6-21.333 21.333v170.667c0 11.733 9.6 21.333 21.333 21.333h149.333v168.747c0 114.688 110.763 215.253 237.013 215.253h125.653c11.733 0 21.333-9.6 21.333-21.333v-128c0-11.733-9.6-21.333-21.333-21.333h-76.715c-46.635 0-115.285-42.837-115.285-81.323v-132.011h188.843c6.699 0 13.013-3.157 17.024-8.491s5.291-12.288 3.456-18.688l-49.024-170.667c-2.645-9.173-11.008-15.445-20.437-15.445h-139.861v-405.333c0-11.776-9.6-21.376-21.333-21.376zM448 42.667h85.333v405.333c0 11.733 9.6 21.333 21.333 21.333h144.981l36.821 128h-181.803c-11.733 0-21.333 9.6-21.333 21.333v153.344c0 68.437 95.573 123.989 157.952 123.989h55.381v85.333h-104.32c-91.947 0-194.347-70.869-194.347-172.587v-190.080c0-11.733-9.6-21.333-21.333-21.333h-149.333v-128h149.333c11.733 0 21.333-9.6 21.333-21.333v-405.333z" />
<glyph unicode="&#xe922;" glyph-name="pli-file" d="M874.667 0h-725.333c-11.776 0-21.333 9.6-21.333 21.333v743.168c0 5.248 1.92 10.283 5.419 14.208l213.333 238.165c4.053 4.523 9.813 7.125 15.915 7.125h512c11.733 0 21.333-9.557 21.333-21.333v-981.333c0-11.733-9.6-21.333-21.333-21.333zM170.667 42.667h682.667v938.667h-481.109l-201.557-224.981v-713.685zM362.667 725.333h-192c-11.776 0-21.333 9.557-21.333 21.333s9.557 21.333 21.333 21.333h170.667v213.333c0 11.776 9.557 21.333 21.333 21.333s21.333-9.557 21.333-21.333v-234.667c0-11.776-9.557-21.333-21.333-21.333z" />
<glyph unicode="&#xe923;" glyph-name="pli-file-add" d="M544 0h-405.333c-11.776 0-21.333 9.6-21.333 21.333v743.168c0 5.248 1.92 10.283 5.419 14.208l213.333 238.165c4.053 4.523 9.813 7.125 15.915 7.125h512c11.733 0 21.333-9.557 21.333-21.333v-618.667c0-11.733-9.6-21.333-21.333-21.333s-21.333 9.6-21.333 21.333v597.333h-481.109l-201.557-224.981v-713.685h384c11.733 0 21.333-9.6 21.333-21.333s-9.6-21.333-21.333-21.333zM352 725.333h-192c-11.776 0-21.333 9.557-21.333 21.333s9.557 21.333 21.333 21.333h170.667v213.333c0 11.776 9.557 21.333 21.333 21.333s21.333-9.557 21.333-21.333v-234.667c0-11.776-9.557-21.333-21.333-21.333zM778.667 21.333c-11.733 0-21.333 9.6-21.333 21.333v213.333c0 11.733 9.6 21.333 21.333 21.333s21.333-9.6 21.333-21.333v-213.333c0-11.733-9.6-21.333-21.333-21.333zM885.333 128h-213.333c-11.733 0-21.333 9.6-21.333 21.333s9.6 21.333 21.333 21.333h213.333c11.733 0 21.333-9.6 21.333-21.333s-9.6-21.333-21.333-21.333z" />
<glyph unicode="&#xe924;" glyph-name="pli-file-csv" d="M810.667 0h-725.333c-11.776 0-21.333 9.6-21.333 21.333v743.168c0 5.248 1.92 10.283 5.419 14.208l213.333 238.165c4.053 4.523 9.813 7.125 15.915 7.125h512c11.733 0 21.333-9.557 21.333-21.333v-490.667c0-11.776-9.6-21.333-21.333-21.333s-21.333 9.557-21.333 21.333v469.333h-481.109l-201.557-224.981v-713.685h682.667v85.333c0 11.733 9.6 21.333 21.333 21.333s21.333-9.6 21.333-21.333v-106.667c0-11.733-9.6-21.333-21.333-21.333zM298.667 725.333h-192c-11.776 0-21.333 9.557-21.333 21.333s9.557 21.333 21.333 21.333h170.667v213.333c0 11.776 9.557 21.333 21.333 21.333s21.333-9.557 21.333-21.333v-234.667c0-11.776-9.557-21.333-21.333-21.333zM896 128h-512c-35.285 0-64 28.715-64 64v256c0 35.285 28.715 64 64 64h512c35.285 0 64-28.715 64-64v-256c0-35.285-28.715-64-64-64zM384 469.333c-11.776 0-21.333-9.6-21.333-21.333v-256c0-11.733 9.557-21.333 21.333-21.333h512c11.733 0 21.333 9.6 21.333 21.333v256c0 11.733-9.6 21.333-21.333 21.333h-512zM564.437 260.651c1.195 0 2.304-0.555 3.243-1.451l8.491-9.301c-6.571-7.595-14.507-13.525-23.936-17.749-9.344-4.309-20.608-6.357-33.792-6.357-11.563 0-22.059 2.005-31.445 5.973-9.387 4.011-17.408 9.685-24.021 16.896-6.656 7.168-11.776 15.829-15.445 25.771-3.627 10.069-5.461 21.163-5.461 33.237s1.963 23.125 5.888 33.195c3.925 10.027 9.429 18.688 16.512 25.856 7.083 7.211 15.573 12.843 25.429 16.896 9.856 4.011 20.779 6.016 32.725 6.016 11.776 0 21.973-1.835 30.464-5.461 8.533-3.669 16.128-8.661 22.784-14.891l-7.083-9.941c-0.555-0.768-1.109-1.323-1.792-1.835-0.683-0.469-1.664-0.725-2.901-0.725-0.939 0-2.005 0.341-3.072 0.981-1.024 0.768-2.347 1.579-3.84 2.688-1.493 0.939-3.243 2.133-5.248 3.371-2.005 1.195-4.395 2.304-7.168 3.371-2.688 0.939-5.973 1.877-9.6 2.603-3.669 0.811-7.893 1.067-12.629 1.067-8.576 0-16.427-1.493-23.552-4.437s-13.269-7.125-18.389-12.587c-5.12-5.461-9.173-12.032-12.032-19.925-2.859-7.808-4.309-16.597-4.309-26.283 0-9.984 1.451-18.901 4.309-26.709 2.859-7.851 6.784-14.464 11.733-19.84 4.949-5.419 10.837-9.515 17.621-12.373 6.784-2.816 14.080-4.267 21.931-4.267 4.779 0 9.045 0.256 12.885 0.853 3.797 0.555 7.296 1.451 10.624 2.688 3.243 1.152 6.229 2.688 9.003 4.437 2.816 1.835 5.632 4.053 8.491 6.571 1.152 1.109 2.389 1.664 3.584 1.664zM686.763 362.752c-0.683-1.067-1.323-1.963-2.133-2.517-0.725-0.597-1.707-0.896-2.859-0.896-1.28 0-2.731 0.725-4.437 1.92-1.707 1.237-3.797 2.645-6.357 4.181s-5.675 2.944-9.301 4.309c-3.584 1.237-8.021 1.877-13.141 1.877-4.821 0-9.173-0.64-12.843-1.963-3.755-1.323-6.827-3.072-9.344-5.333-2.56-2.261-4.437-4.864-5.675-7.979-1.237-3.029-1.877-6.229-1.877-9.771 0-4.437 1.024-8.192 3.285-11.136 2.176-2.944 5.12-5.504 8.747-7.595 3.584-2.091 7.723-3.883 12.288-5.419 4.523-1.493 9.301-3.072 14.123-4.736 4.736-1.664 9.515-3.499 14.080-5.504 4.523-2.048 8.661-4.608 12.245-7.808 3.669-3.115 6.528-6.955 8.747-11.563 2.261-4.48 3.328-10.069 3.328-16.768 0-6.997-1.152-13.568-3.584-19.712-2.389-6.229-5.888-11.563-10.411-16.043-4.565-4.48-10.24-8.064-16.896-10.752-6.656-2.603-14.251-3.883-22.741-3.883-10.325 0-19.797 1.877-28.373 5.632-8.533 3.755-15.787 8.832-21.888 15.232l6.229 10.24c0.597 0.896 1.323 1.493 2.176 2.091 0.896 0.597 1.835 0.896 2.859 0.896 1.579 0 3.371-0.896 5.333-2.56 2.048-1.664 4.523-3.499 7.552-5.504s6.656-3.883 11.008-5.589c4.267-1.664 9.515-2.517 15.659-2.517 5.163 0 9.771 0.768 13.739 2.133 4.096 1.408 7.424 3.413 10.24 6.101 2.816 2.56 4.949 5.632 6.4 9.216 1.493 3.541 2.304 7.552 2.304 11.947 0 4.864-1.109 8.789-3.328 11.861-2.176 3.072-5.077 5.76-8.661 7.808-3.584 2.091-7.68 3.84-12.245 5.333-4.523 1.451-9.259 2.944-14.037 4.437-4.821 1.536-9.557 3.328-14.165 5.291-4.523 2.091-8.661 4.608-12.245 7.936-3.584 3.157-6.443 7.253-8.661 11.989-2.176 4.821-3.328 10.752-3.328 17.835 0 5.717 1.152 11.179 3.328 16.469 2.219 5.291 5.419 9.899 9.6 14.080 4.181 4.096 9.344 7.381 15.488 9.771 6.144 2.56 13.227 3.669 21.163 3.669 9.003 0 17.109-1.408 24.491-4.267 7.424-2.859 13.824-6.955 19.413-12.331l-5.291-10.112zM704.683 387.84h17.323c1.92 0 3.499-0.469 4.693-1.408s2.091-2.261 2.688-3.669l45.312-113.067c1.024-2.517 1.963-5.291 2.773-8.277 0.896-2.944 1.749-6.101 2.56-9.301 0.683 3.2 1.365 6.315 2.176 9.301s1.707 5.803 2.688 8.277l45.141 113.067c0.512 1.237 1.365 2.432 2.688 3.499 1.237 1.109 2.773 1.664 4.651 1.664h17.451l-65.323-160.299h-19.584l-65.237 160.213z" />
<glyph unicode="&#xe925;" glyph-name="pli-file-edit" d="M571.819 75.435c-5.504 0-11.008 2.261-15.104 6.229-6.016 6.016-7.893 15.019-4.736 22.912l58.923 149.419c1.067 2.688 2.688 5.205 4.821 7.253l163.499 163.499c8.235 8.32 21.845 8.32 30.165 0l90.496-90.496c4.011-4.011 6.229-9.429 6.229-15.104 0-5.76-2.261-11.179-6.229-15.104l-163.499-163.499c-2.091-2.048-4.48-3.712-7.253-4.779l-149.504-58.923c-2.475-0.939-5.12-1.408-7.808-1.408zM649.088 234.197l-39.339-99.627 99.669 39.296 145.237 145.28-60.373 60.331-145.195-145.28zM884.821 288.981l-30.165 30.165 43.52 43.477c13.397 13.44 7.509 45.696-3.584 56.832-11.093 11.008-43.349 16.939-56.789 3.541l-43.563-43.52-30.165 30.165 43.563 43.52c32.896 32.896 92.757 20.736 117.077-3.541 24.32-24.363 36.437-84.309 3.584-117.163l-43.477-43.477zM707.868 163.841l-67.116 67.078 30.161 30.178 67.116-67.078-30.161-30.178zM799.877 253.186l-68.57 68.28 30.106 30.234 68.57-68.28-30.106-30.234zM502.272 0h-405.333c-11.776 0-21.333 9.6-21.333 21.333v743.168c0 5.248 1.92 10.283 5.419 14.208l213.333 238.165c4.096 4.523 9.813 7.125 15.915 7.125h512c11.776 0 21.333-9.557 21.333-21.333v-448c0-11.776-9.557-21.333-21.333-21.333-11.733 0-21.333 9.557-21.333 21.333v426.667h-481.067l-201.6-224.981v-713.685h384c11.776 0 21.333-9.6 21.333-21.333s-9.557-21.333-21.333-21.333zM310.272 725.333h-192c-11.776 0-21.333 9.557-21.333 21.333s9.6 21.333 21.333 21.333h170.667v213.333c0 11.776 9.557 21.333 21.333 21.333s21.333-9.557 21.333-21.333v-234.667c0-11.776-9.557-21.333-21.333-21.333z" />
<glyph unicode="&#xe926;" glyph-name="pli-file-excel" d="M810.667 0h-725.333c-11.776 0-21.333 9.6-21.333 21.333v743.168c0 5.248 1.92 10.283 5.419 14.208l213.333 238.165c4.053 4.523 9.813 7.125 15.915 7.125h512c11.733 0 21.333-9.557 21.333-21.333v-490.667c0-11.776-9.6-21.333-21.333-21.333s-21.333 9.557-21.333 21.333v469.333h-481.109l-201.557-224.981v-713.685h682.667v85.333c0 11.733 9.6 21.333 21.333 21.333s21.333-9.6 21.333-21.333v-106.667c0-11.733-9.6-21.333-21.333-21.333zM298.667 725.333h-192c-11.776 0-21.333 9.557-21.333 21.333s9.557 21.333 21.333 21.333h170.667v213.333c0 11.776 9.557 21.333 21.333 21.333s21.333-9.557 21.333-21.333v-234.667c0-11.776-9.557-21.333-21.333-21.333zM896 128h-512c-35.285 0-64 28.715-64 64v256c0 35.285 28.715 64 64 64h512c35.285 0 64-28.715 64-64v-256c0-35.285-28.715-64-64-64zM384 469.333c-11.776 0-21.333-9.6-21.333-21.333v-256c0-11.733 9.557-21.333 21.333-21.333h512c11.733 0 21.333 9.6 21.333 21.333v256c0 11.733-9.6 21.333-21.333 21.333h-512zM504.704 322.176l-52.907 77.995h21.589c1.579 0 2.688-0.256 3.456-0.853 0.768-0.555 1.408-1.237 2.005-2.219l41.813-64.213c0.512 1.579 1.323 3.285 2.347 5.12l39.509 58.624c0.683 1.067 1.365 1.877 2.176 2.645 0.768 0.64 1.749 0.896 2.816 0.896h20.693l-53.12-76.971 54.912-83.328h-21.461c-1.664 0-2.901 0.469-3.883 1.28-0.896 0.853-1.664 1.792-2.261 2.816l-43.008 67.2c-0.512-1.579-1.195-3.029-2.005-4.437l-41.813-62.72c-0.683-1.067-1.451-2.048-2.304-2.859-0.853-0.896-2.048-1.28-3.627-1.28h-20.139l55.211 82.304zM633.003 258.091h69.333v-18.219h-91.051v160.256h21.717v-142.037zM808.32 375.083c-0.683-1.067-1.365-1.963-2.176-2.517-0.725-0.597-1.664-0.896-2.859-0.896-1.28 0-2.688 0.64-4.437 1.877-1.664 1.28-3.797 2.688-6.315 4.267-2.603 1.493-5.675 2.859-9.344 4.181-3.584 1.237-8.021 1.877-13.141 1.877-4.779 0-9.131-0.768-12.843-1.963-3.712-1.28-6.827-3.072-9.387-5.333-2.517-2.261-4.395-4.864-5.589-7.979-1.237-3.029-1.92-6.229-1.92-9.771 0-4.437 1.067-8.192 3.328-11.136 2.176-2.944 5.077-5.504 8.704-7.595 3.584-2.048 7.723-3.883 12.288-5.419 4.565-1.493 9.344-3.072 14.123-4.736s9.557-3.499 14.080-5.504c4.523-2.048 8.704-4.608 12.288-7.808 3.627-3.115 6.485-6.955 8.747-11.563 2.219-4.48 3.328-10.069 3.328-16.768 0-7.040-1.195-13.568-3.584-19.712-2.432-6.229-5.931-11.563-10.453-16.085-4.565-4.523-10.24-8.107-16.896-10.709s-14.251-3.925-22.741-3.925c-10.411 0-19.84 1.877-28.416 5.632s-15.829 8.875-21.888 15.275l6.272 10.24c0.597 0.896 1.323 1.493 2.176 2.091 0.853 0.555 1.792 0.853 2.816 0.853 1.579 0 3.413-0.853 5.333-2.517 2.005-1.749 4.523-3.584 7.595-5.589 2.987-2.005 6.656-3.84 10.965-5.504s9.643-2.347 15.787-2.347c5.163 0 9.771 0.768 13.739 2.133 4.053 1.408 7.424 3.413 10.24 6.101 2.773 2.56 4.907 5.632 6.4 9.216 1.493 3.541 2.261 7.552 2.261 11.989 0 4.821-1.067 8.789-3.328 11.904-2.176 3.029-5.077 5.675-8.661 7.765s-7.68 3.84-12.245 5.291c-4.523 1.451-9.259 2.944-14.080 4.437-4.779 1.536-9.515 3.328-14.080 5.333-4.565 2.048-8.661 4.608-12.245 7.936-3.584 3.2-6.485 7.211-8.661 12.032-2.261 4.779-3.328 10.752-3.328 17.835 0 5.675 1.067 11.136 3.328 16.427 2.176 5.333 5.376 9.899 9.6 14.123 4.181 4.096 9.344 7.381 15.445 9.771 6.144 2.56 13.227 3.669 21.205 3.669 8.96 0 17.067-1.408 24.491-4.267 7.381-2.859 13.824-6.955 19.328-12.331l-5.248-10.283z" />
<glyph unicode="&#xe927;" glyph-name="pli-file-html" d="M789.333 0h-725.333c-11.776 0-21.333 9.6-21.333 21.333v743.168c0 5.248 1.92 10.283 5.419 14.208l213.333 238.165c4.053 4.523 9.813 7.125 15.915 7.125h512c11.733 0 21.333-9.557 21.333-21.333v-490.667c0-11.776-9.6-21.333-21.333-21.333s-21.333 9.557-21.333 21.333v469.333h-481.109l-201.557-224.981v-713.685h682.667v85.333c0 11.733 9.6 21.333 21.333 21.333s21.333-9.6 21.333-21.333v-106.667c0-11.733-9.6-21.333-21.333-21.333zM277.333 725.333h-192c-11.776 0-21.333 9.557-21.333 21.333s9.557 21.333 21.333 21.333h170.667v213.333c0 11.776 9.557 21.333 21.333 21.333s21.333-9.557 21.333-21.333v-234.667c0-11.776-9.557-21.333-21.333-21.333zM917.333 128h-682.667c-35.285 0-64 28.715-64 64v256c0 35.285 28.715 64 64 64h682.667c35.285 0 64-28.715 64-64v-256c0-35.285-28.715-64-64-64zM234.667 469.333c-11.776 0-21.333-9.6-21.333-21.333v-256c0-11.733 9.557-21.333 21.333-21.333h682.667c11.733 0 21.333 9.6 21.333 21.333v256c0 11.733-9.6 21.333-21.333 21.333h-682.667zM426.752 239.872h-21.803v72.917h-86.315v-72.917h-21.803v160.256h21.803v-71.467h86.315v71.467h21.803v-160.256zM575.104 400.128v-18.219h-51.755v-142.037h-21.717v142.037h-52.011v18.219h125.483zM679.467 292.181c0.811-2.005 1.579-3.968 2.304-6.016 0.853 2.091 1.579 4.096 2.432 6.016 0.896 1.877 1.749 3.84 2.731 5.76l54.229 98.603c0.896 1.707 1.963 2.731 2.987 3.115 0.939 0.384 2.56 0.555 4.437 0.555h15.957v-160.256h-18.944v117.76c0 1.579 0.085 3.243 0.171 5.035s0.171 3.627 0.341 5.461l-54.912-100.309c-1.92-3.371-4.48-5.035-7.851-5.035h-3.157c-3.413 0-6.059 1.664-7.936 5.035l-56.064 100.565c0.171-1.963 0.384-3.883 0.512-5.717 0.085-1.92 0.171-3.584 0.171-5.163v-117.803h-19.029v160.299h16c1.963 0 3.413-0.171 4.48-0.597 1.024-0.384 2.048-1.408 2.944-3.072l55.339-98.688c1.152-1.749 2.091-3.541 2.859-5.547zM825.429 258.091h69.333v-18.219h-91.093v160.256h21.76v-142.037z" />
<glyph unicode="&#xe928;" glyph-name="pli-file-jpg" d="M810.667 0h-725.333c-11.733 0-21.333 9.6-21.333 21.333v743.168c0 5.248 1.963 10.283 5.461 14.208l213.333 238.165c4.053 4.523 9.771 7.125 15.872 7.125h512c11.733 0 21.333-9.557 21.333-21.333v-490.667c0-11.776-9.6-21.333-21.333-21.333s-21.333 9.557-21.333 21.333v469.333h-481.067l-201.6-224.981v-713.685h682.667v85.333c0 11.733 9.6 21.333 21.333 21.333s21.333-9.6 21.333-21.333v-106.667c0-11.733-9.6-21.333-21.333-21.333zM298.667 725.333h-192c-11.733 0-21.333 9.557-21.333 21.333s9.6 21.333 21.333 21.333h170.667v213.333c0 11.776 9.6 21.333 21.333 21.333s21.333-9.557 21.333-21.333v-234.667c0-11.776-9.6-21.333-21.333-21.333zM896 128h-512c-35.285 0-64 28.715-64 64v256c0 35.285 28.715 64 64 64h512c35.285 0 64-28.715 64-64v-256c0-35.285-28.715-64-64-64zM384 469.333c-11.733 0-21.333-9.6-21.333-21.333v-256c0-11.733 9.6-21.333 21.333-21.333h512c11.733 0 21.333 9.6 21.333 21.333v256c0 11.733-9.6 21.333-21.333 21.333h-512zM525.269 290.005c0-8.917-0.981-16.896-3.243-24.021-2.261-7.083-5.504-13.099-9.771-17.92-4.352-4.907-9.6-8.661-15.829-11.264-6.229-2.645-13.397-3.968-21.589-3.968-7.253 0-14.763 1.024-22.571 3.115 0.171 2.176 0.341 4.352 0.597 6.4 0.256 2.133 0.512 4.267 0.725 6.272 0.128 1.28 0.725 2.304 1.365 3.072 0.896 0.811 2.005 1.109 3.541 1.109 1.28 0 3.029-0.341 5.376-0.939 2.261-0.64 5.248-0.939 8.96-0.939 4.864 0 9.301 0.768 13.227 2.219 3.84 1.451 7.083 3.797 9.771 6.955 2.688 3.072 4.651 7.125 6.016 11.989 1.408 4.864 2.091 10.667 2.091 17.408v105.344h21.589v-104.917h-0.256v0.085zM588.117 294.613v-59.947h-21.632v160.256h47.317c10.069 0 18.859-1.152 26.368-3.541 7.552-2.347 13.696-5.717 18.688-9.899 4.907-4.437 8.576-9.685 11.008-15.659 2.432-6.144 3.669-12.928 3.669-20.437s-1.323-14.251-3.925-20.437c-2.688-6.229-6.443-11.563-11.563-16-4.907-4.437-11.264-7.979-18.688-10.453s-16-3.755-25.6-3.755l-25.643-0.128zM588.117 311.851h25.728c6.229 0 11.648 0.896 16.427 2.517 4.693 1.664 8.661 3.925 11.861 6.869 3.2 2.859 5.632 6.443 7.296 10.581 1.621 4.096 2.517 8.619 2.517 13.44 0 10.24-3.115 18.176-9.515 24.021-6.229 5.76-15.829 8.576-28.587 8.576h-25.728v-66.005zM772.437 250.453c4.437 0 8.32 0.171 11.904 0.597 3.627 0.469 6.997 1.024 10.24 1.835 3.157 0.896 6.229 1.792 9.045 2.944s5.675 2.517 8.491 3.968v35.328h-24.832c-1.408 0-2.56 0.427-3.371 1.237-0.896 0.853-1.323 1.792-1.323 3.029v12.331h49.237v-61.525c-4.096-2.901-8.235-5.419-12.587-7.595-4.437-2.219-9.045-3.968-13.995-5.419-4.949-1.493-10.24-2.645-15.915-3.285s-11.819-0.981-18.517-0.981c-11.563 0-22.229 2.005-32 5.973-9.771 4.011-18.005 9.6-25.003 16.811s-12.501 15.829-16.427 25.856c-4.011 10.027-5.931 21.163-5.931 33.195 0 12.245 1.92 23.424 5.76 33.451 3.925 10.069 9.429 18.688 16.512 25.899 7.083 7.168 15.744 12.757 25.771 16.725 10.069 4.011 21.419 5.931 33.963 5.931 6.272 0 12.203-0.469 17.664-1.365 5.461-0.939 10.496-2.304 15.104-4.053 4.565-1.749 8.917-3.925 12.971-6.357 3.968-2.475 7.637-5.291 11.051-8.448l-6.187-9.771c-1.237-2.005-2.859-3.029-4.864-3.029-1.195 0-2.56 0.384-3.968 1.195-1.92 0.939-4.011 2.347-6.229 3.797-2.304 1.493-5.077 2.944-8.32 4.395-3.328 1.365-7.253 2.56-11.733 3.499s-9.813 1.451-16.043 1.451c-9.045 0-17.195-1.451-24.491-4.437s-13.525-7.168-18.688-12.629-9.088-12.117-11.776-19.925-4.224-16.555-4.224-26.197c0-10.155 1.493-19.2 4.395-27.136 2.859-7.979 6.912-14.72 12.16-20.267 5.12-5.504 11.435-9.771 18.56-12.629 7.040-2.944 14.891-4.395 23.595-4.395z" />
<glyph unicode="&#xe929;" glyph-name="pli-file-text-image" d="M874.667 0h-725.333c-11.776 0-21.333 9.6-21.333 21.333v743.168c0 5.248 1.92 10.283 5.419 14.208l213.333 238.165c4.053 4.523 9.813 7.125 15.915 7.125h512c11.733 0 21.333-9.557 21.333-21.333v-981.333c0-11.733-9.6-21.333-21.333-21.333zM170.667 42.667h682.667v938.667h-481.109l-201.557-224.981v-713.685zM362.667 725.333h-192c-11.776 0-21.333 9.557-21.333 21.333s9.557 21.333 21.333 21.333h170.667v213.333c0 11.776 9.557 21.333 21.333 21.333s21.333-9.557 21.333-21.333v-234.667c0-11.776-9.557-21.333-21.333-21.333zM704 128h-384c-11.776 0-21.333 9.6-21.333 21.333v469.333c0 11.776 9.557 21.333 21.333 21.333h384c11.733 0 21.333-9.557 21.333-21.333v-469.333c0-11.733-9.6-21.333-21.333-21.333zM341.333 170.667h341.333v426.667h-341.333v-426.667zM682.667 256h-341.333c-11.776 0-21.333 9.6-21.333 21.333s9.557 21.333 21.333 21.333h341.333c11.733 0 21.333-9.6 21.333-21.333s-9.6-21.333-21.333-21.333zM597.333 512h-170.667c-11.776 0-21.333 9.557-21.333 21.333s9.557 21.333 21.333 21.333h170.667c11.733 0 21.333-9.557 21.333-21.333s-9.6-21.333-21.333-21.333zM597.333 426.667h-170.667c-11.776 0-21.333 9.6-21.333 21.333s9.557 21.333 21.333 21.333h170.667c11.733 0 21.333-9.6 21.333-21.333s-9.6-21.333-21.333-21.333zM597.333 341.333h-170.667c-11.776 0-21.333 9.6-21.333 21.333s9.557 21.333 21.333 21.333h170.667c11.733 0 21.333-9.6 21.333-21.333s-9.6-21.333-21.333-21.333z" />
<glyph unicode="&#xe92a;" glyph-name="pli-file-txt" d="M810.667 0h-725.333c-11.733 0-21.333 9.6-21.333 21.333v743.168c0 5.248 1.963 10.283 5.461 14.208l213.333 238.165c4.053 4.523 9.771 7.125 15.872 7.125h512c11.733 0 21.333-9.557 21.333-21.333v-490.667c0-11.776-9.6-21.333-21.333-21.333s-21.333 9.557-21.333 21.333v469.333h-481.067l-201.6-224.981v-713.685h682.667v85.333c0 11.733 9.6 21.333 21.333 21.333s21.333-9.6 21.333-21.333v-106.667c0-11.733-9.6-21.333-21.333-21.333zM298.667 725.333h-192c-11.733 0-21.333 9.557-21.333 21.333s9.6 21.333 21.333 21.333h170.667v213.333c0 11.776 9.6 21.333 21.333 21.333s21.333-9.557 21.333-21.333v-234.667c0-11.776-9.6-21.333-21.333-21.333zM896 128h-512c-35.285 0-64 28.715-64 64v256c0 35.285 28.715 64 64 64h512c35.285 0 64-28.715 64-64v-256c0-35.285-28.715-64-64-64zM384 469.333c-11.733 0-21.333-9.6-21.333-21.333v-256c0-11.733 9.6-21.333 21.333-21.333h512c11.733 0 21.333 9.6 21.333 21.333v256c0 11.733-9.6 21.333-21.333 21.333h-512zM576.683 394.923v-18.219h-51.84v-142.037h-21.675v142.037h-52.011v18.219h125.525zM636.715 316.971l-52.864 77.952h21.589c1.579 0 2.688-0.256 3.413-0.853 0.811-0.555 1.408-1.237 2.091-2.219l41.771-64.213c0.64 1.579 1.323 3.285 2.475 5.12l39.424 58.624c0.725 1.024 1.408 1.877 2.261 2.603 0.853 0.64 1.707 0.896 2.816 0.896h20.608l-53.12-76.971 54.912-83.328h-21.461c-1.664 0-2.859 0.427-3.883 1.28s-1.707 1.792-2.347 2.859l-43.008 67.157c-0.555-1.579-1.109-3.072-2.005-4.437l-41.771-62.763c-0.768-1.024-1.451-2.005-2.347-2.816s-2.091-1.28-3.669-1.28h-20.053l55.168 82.389zM852.437 394.923v-18.219h-51.755v-142.037h-21.717v142.037h-52.053v18.219h125.525z" />
<glyph unicode="&#xe92b;" glyph-name="pli-file-word" d="M810.667 0h-725.333c-11.776 0-21.333 9.6-21.333 21.333v743.168c0 5.248 1.92 10.283 5.419 14.208l213.333 238.165c4.053 4.523 9.813 7.125 15.915 7.125h512c11.733 0 21.333-9.557 21.333-21.333v-490.667c0-11.776-9.6-21.333-21.333-21.333s-21.333 9.557-21.333 21.333v469.333h-481.109l-201.557-224.981v-713.685h682.667v85.333c0 11.733 9.6 21.333 21.333 21.333s21.333-9.6 21.333-21.333v-106.667c0-11.733-9.6-21.333-21.333-21.333zM298.667 725.333h-192c-11.776 0-21.333 9.557-21.333 21.333s9.557 21.333 21.333 21.333h170.667v213.333c0 11.776 9.557 21.333 21.333 21.333s21.333-9.557 21.333-21.333v-234.667c0-11.776-9.557-21.333-21.333-21.333zM896 128h-512c-35.285 0-64 28.715-64 64v256c0 35.285 28.715 64 64 64h512c35.285 0 64-28.715 64-64v-256c0-35.285-28.715-64-64-64zM384 469.333c-11.776 0-21.333-9.6-21.333-21.333v-256c0-11.733 9.557-21.333 21.333-21.333h512c11.733 0 21.333 9.6 21.333 21.333v256c0 11.733-9.6 21.333-21.333 21.333h-512zM552.064 319.957c0-12.032-1.92-22.955-5.76-32.811-3.797-9.813-9.173-18.304-16.085-25.301-6.955-7.040-15.232-12.459-24.917-16.299-9.728-3.84-20.437-5.76-32.213-5.76h-59.904v160.256h59.947c11.776 0 22.485-1.92 32.213-5.76 9.685-3.84 18.005-9.259 24.917-16.341 6.955-7.083 12.288-15.445 16.085-25.344 3.84-9.728 5.717-20.651 5.717-32.64zM529.792 319.957c0 9.771-1.323 18.645-4.011 26.368s-6.485 14.336-11.435 19.669c-4.907 5.376-10.88 9.472-17.877 12.331-7.040 2.731-14.805 4.267-23.381 4.267h-38.144v-125.184h38.144c8.576 0 16.341 1.408 23.381 4.267 6.997 2.816 12.971 6.955 17.877 12.288 4.949 5.333 8.747 11.861 11.435 19.627 2.688 7.723 4.011 16.512 4.011 26.368zM730.453 319.957c0-12.032-1.877-23.040-5.717-33.024-3.755-9.984-9.173-18.688-16.085-25.856s-15.232-12.843-25.003-16.811c-9.728-4.053-20.437-6.059-32.256-6.059-11.733 0-22.485 2.005-32.171 6.059-9.728 3.968-18.048 9.6-24.917 16.811-6.997 7.253-12.331 15.872-16.128 25.856-3.797 10.027-5.717 20.992-5.717 33.024 0 11.989 1.877 23.040 5.717 33.024 3.797 9.984 9.216 18.688 16.128 25.899s15.189 12.928 24.917 16.896c9.685 4.053 20.437 6.101 32.171 6.101 11.776 0 22.528-2.005 32.256-6.101 9.771-4.053 18.091-9.685 25.003-16.896s12.331-15.957 16.085-25.899c3.84-9.984 5.717-21.035 5.717-33.024zM708.267 319.957c0 9.771-1.323 18.688-4.053 26.496s-6.443 14.421-11.477 19.84c-4.864 5.376-10.837 9.643-17.835 12.459-6.997 2.901-14.891 4.437-23.509 4.437-8.576 0-16.384-1.451-23.381-4.437-6.955-2.901-13.013-7.083-17.963-12.459-4.907-5.419-8.789-12.032-11.52-19.84-2.688-7.808-4.011-16.725-4.011-26.496 0-9.856 1.323-18.688 4.011-26.453s6.485-14.379 11.52-19.797c4.949-5.419 11.008-9.643 17.963-12.416 6.997-2.859 14.805-4.437 23.381-4.437 8.661 0 16.512 1.451 23.509 4.437 6.997 2.773 12.971 6.997 17.835 12.416 4.907 5.376 8.747 11.947 11.477 19.797s4.053 16.597 4.053 26.453zM873.045 272.981c1.195 0 2.304-0.512 3.243-1.451l8.448-9.301c-6.528-7.595-14.507-13.483-23.893-17.749-9.387-4.309-20.608-6.357-33.835-6.357-11.563 0-22.059 2.005-31.445 5.973-9.387 4.011-17.408 9.685-24.021 16.896-6.656 7.168-11.733 15.829-15.403 25.771-3.669 10.069-5.504 21.163-5.504 33.237s2.005 23.125 5.931 33.195c3.925 10.027 9.429 18.688 16.512 25.856s15.573 12.843 25.429 16.896c9.813 3.968 20.779 5.973 32.768 5.973 11.733 0 21.931-1.835 30.421-5.461 8.576-3.669 16.171-8.619 22.827-14.933l-7.083-9.899c-0.555-0.768-1.109-1.365-1.835-1.877-0.683-0.469-1.664-0.725-2.859-0.725-0.939 0-2.048 0.341-3.072 1.024s-2.347 1.579-3.84 2.645-3.243 2.176-5.248 3.328c-2.005 1.195-4.395 2.347-7.168 3.371-2.688 1.024-5.973 1.92-9.643 2.688-3.669 0.725-7.893 0.981-12.587 0.981-8.576 0-16.469-1.493-23.595-4.437s-13.269-7.125-18.389-12.544-9.173-12.075-12.032-19.968c-2.816-7.808-4.352-16.597-4.352-26.24 0-9.984 1.493-18.901 4.352-26.709 2.859-7.893 6.784-14.464 11.733-19.883 4.907-5.419 10.837-9.557 17.579-12.331 6.827-2.816 14.080-4.309 21.973-4.309 4.779 0 9.045 0.299 12.885 0.896 3.84 0.555 7.339 1.408 10.581 2.645 3.285 1.195 6.229 2.688 9.045 4.523s5.632 4.011 8.448 6.485c1.237 1.237 2.517 1.792 3.627 1.792z" />
<glyph unicode="&#xe92c;" glyph-name="pli-file-zip" d="M874.667 0h-725.333c-11.776 0-21.333 9.6-21.333 21.333v743.168c0 5.248 1.92 10.283 5.419 14.208l213.333 238.165c4.053 4.523 9.813 7.125 15.915 7.125h512c11.733 0 21.333-9.557 21.333-21.333v-981.333c0-11.733-9.6-21.333-21.333-21.333zM170.667 42.667h682.667v938.667h-481.109l-201.557-224.981v-713.685zM362.667 725.333h-192c-11.776 0-21.333 9.557-21.333 21.333s9.557 21.333 21.333 21.333h170.667v213.333c0 11.776 9.557 21.333 21.333 21.333s21.333-9.557 21.333-21.333v-234.667c0-11.776-9.557-21.333-21.333-21.333zM661.333 768h-128c-11.776 0-21.333 9.557-21.333 21.333v213.333c0 11.776 9.557 21.333 21.333 21.333h128c11.733 0 21.333-9.557 21.333-21.333v-213.333c0-11.776-9.6-21.333-21.333-21.333zM554.667 810.667h85.333v170.667h-85.333v-170.667zM640 725.333h-42.667c-11.733 0-21.333 9.557-21.333 21.333s9.6 21.333 21.333 21.333h42.667c11.733 0 21.333-9.557 21.333-21.333s-9.6-21.333-21.333-21.333zM597.333 682.667h-42.667c-11.733 0-21.333 9.557-21.333 21.333s9.6 21.333 21.333 21.333h42.667c11.733 0 21.333-9.557 21.333-21.333s-9.6-21.333-21.333-21.333zM640 640h-42.667c-11.733 0-21.333 9.557-21.333 21.333s9.6 21.333 21.333 21.333h42.667c11.733 0 21.333-9.557 21.333-21.333s-9.6-21.333-21.333-21.333zM597.333 597.333h-42.667c-11.733 0-21.333 9.557-21.333 21.333s9.6 21.333 21.333 21.333h42.667c11.733 0 21.333-9.557 21.333-21.333s-9.6-21.333-21.333-21.333zM640 554.667h-42.667c-11.733 0-21.333 9.557-21.333 21.333s9.6 21.333 21.333 21.333h42.667c11.733 0 21.333-9.557 21.333-21.333s-9.6-21.333-21.333-21.333zM597.333 512h-42.667c-11.733 0-21.333 9.557-21.333 21.333s9.6 21.333 21.333 21.333h42.667c11.733 0 21.333-9.557 21.333-21.333s-9.6-21.333-21.333-21.333zM640 469.333h-42.667c-11.733 0-21.333 9.6-21.333 21.333 0 11.776 9.6 21.333 21.333 21.333h42.667c11.733 0 21.333-9.557 21.333-21.333 0-11.733-9.6-21.333-21.333-21.333zM597.333 426.667h-42.667c-11.733 0-21.333 9.6-21.333 21.333s9.6 21.333 21.333 21.333h42.667c11.733 0 21.333-9.6 21.333-21.333s-9.6-21.333-21.333-21.333zM640 384h-42.667c-11.733 0-21.333 9.6-21.333 21.333s9.6 21.333 21.333 21.333h42.667c11.733 0 21.333-9.6 21.333-21.333s-9.6-21.333-21.333-21.333zM597.333 341.333h-42.667c-11.733 0-21.333 9.6-21.333 21.333s9.6 21.333 21.333 21.333h42.667c11.733 0 21.333-9.6 21.333-21.333s-9.6-21.333-21.333-21.333zM640 298.667h-42.667c-11.733 0-21.333 9.6-21.333 21.333s9.6 21.333 21.333 21.333h42.667c11.733 0 21.333-9.6 21.333-21.333s-9.6-21.333-21.333-21.333zM597.333 256h-42.667c-11.733 0-21.333 9.6-21.333 21.333s9.6 21.333 21.333 21.333h42.667c11.733 0 21.333-9.6 21.333-21.333s-9.6-21.333-21.333-21.333zM640 213.333h-42.667c-11.733 0-21.333 9.6-21.333 21.333s9.6 21.333 21.333 21.333h42.667c11.733 0 21.333-9.6 21.333-21.333s-9.6-21.333-21.333-21.333zM597.333 170.667h-42.667c-11.733 0-21.333 9.6-21.333 21.333s9.6 21.333 21.333 21.333h42.667c11.733 0 21.333-9.6 21.333-21.333s-9.6-21.333-21.333-21.333zM640 128h-42.667c-11.733 0-21.333 9.6-21.333 21.333s9.6 21.333 21.333 21.333h42.667c11.733 0 21.333-9.6 21.333-21.333s-9.6-21.333-21.333-21.333zM597.333 85.333h-42.667c-11.733 0-21.333 9.6-21.333 21.333s9.6 21.333 21.333 21.333h42.667c11.733 0 21.333-9.6 21.333-21.333s-9.6-21.333-21.333-21.333zM640 42.667h-42.667c-11.733 0-21.333 9.6-21.333 21.333s9.6 21.333 21.333 21.333h42.667c11.733 0 21.333-9.6 21.333-21.333s-9.6-21.333-21.333-21.333z" />
<glyph unicode="&#xe92d;" glyph-name="pli-find-user" d="M826.286 109.773c-29.532 0-57.262 11.469-78.152 32.399-43.049 43.049-43.049 113.295 0 156.303 41.82 41.779 114.647 41.779 156.344 0 43.090-43.131 43.090-113.295 0-156.303-20.89-20.931-48.66-32.399-78.193-32.399zM826.286 289.874c-18.555 0-36.086-7.25-49.193-20.357-27.034-27.156-27.034-71.311 0-98.427 26.337-26.255 72.172-26.255 98.468 0 27.075 27.116 27.075 71.27 0 98.427-13.23 13.107-30.638 20.357-49.275 20.357zM985.457 40.55c-5.202 0-10.486 2.007-14.5 5.98l-95.519 95.56c-7.987 7.987-7.987 20.972 0 28.959s20.972 7.987 28.959 0l95.519-95.56c7.987-7.946 7.987-20.972 0-28.959-3.932-3.973-9.216-5.98-14.459-5.98zM482.755 219.587c-127.795 0-199.27 137.298-205.169 272.548-32.563 7.291-72.786 29.86-72.786 63.119v90.112c0 27.116 24.945 46.94 40.96 57.016v78.111c0 83.64 45.588 130.662 128.737 132.997 67.994 46.531 135.455 71.066 195.215 71.066 60.334 0 108.872-24.986 133.448-68.69 23.265-41.411 20.89-92.57-6.717-140.943v-65.946c40.96-8.561 40.96-43.54 40.96-63.611v-90.071c0-30.188-28.385-54.886-58.819-62.792-5.079-134.676-66.765-272.916-195.83-272.916zM569.59 943.677c-36.823 0-97.444-11.674-176.865-67.297-3.441-2.499-7.619-3.768-11.756-3.768-64.225 0-94.249-29.286-94.249-92.119v-89.989c0-7.741-4.383-14.868-11.346-18.35-14.991-7.537-29.614-20.685-29.614-26.706v-90.071c1.188-7.66 31.375-24.576 52.019-24.576 11.264 0 20.48-9.175 20.48-20.48 0-121.078 57.631-249.774 164.618-249.774 106.619 0 155.116 129.434 155.116 249.774 0 11.305 9.175 20.48 20.48 20.48 16.261 0 37.97 14.008 37.97 24.576v90.071c0 24.658 0 24.658-20.48 24.658-11.223 0-20.48 9.175-20.48 20.48v89.989c0 3.85 0.942 7.496 2.949 10.65 22.446 36.946 25.723 75.203 9.052 104.858-17.203 30.188-52.797 47.596-97.894 47.596zM20.48 39.444c-11.264 0-20.48 9.216-20.48 20.48 0 118.62 94.74 204.8 225.28 204.8h50.463l54.559 81.347c6.185 9.38 18.964 11.919 28.303 5.612 9.38-6.226 11.919-19.005 5.693-28.385l-60.58-90.399c-3.809-5.734-10.158-9.134-16.998-9.134h-61.44c-108.462 0-184.32-67.379-184.32-163.84 0-11.305-9.216-20.48-20.48-20.48z" />
<glyph unicode="&#xe92e;" glyph-name="pli-fire-flame-2" d="M607.957 74.624h-131.584c-94.592 0-146.304 42.325-187.776 76.331-33.536 27.477-59.989 49.152-101.973 49.152-6.485 0-12.672 2.901-16.725 8.021s-5.547 11.776-4.053 18.176c10.88 46.123 76.971 101.931 142.72 101.931 15.104 0 29.355-2.816 42.496-8.491 13.867 54.656-14.421 91.733-46.549 133.973-38.656 50.645-82.475 108.16-32.299 194.389 3.968 6.741 11.563 11.563 19.115 10.624 7.893-0.256 14.976-4.779 18.432-11.776 22.485-44.971 58.539-57.685 89.771-32.896 61.611 107.904 67.84 218.197 16.896 303.104-4.992 8.277-3.797 18.901 2.944 25.813 6.784 6.955 17.323 8.363 25.771 3.755 150.827-85.035 259.456-309.419 218.667-436.395 43.264-2.859 96.171 35.285 96.171 55.040 0 10.283 7.339 19.115 17.493 20.992 9.899 1.664 20.139-3.797 23.808-13.397 29.056-76.544-21.291-168.619-78.464-217.429 18.603-8.661 41.984-14.165 63.573-14.165 19.755 0 31.104 4.736 35.157 9.173 5.973 6.528 15.275 8.747 23.509 5.589 8.192-3.115 13.611-11.093 13.611-19.925-0.043-82.176-143.104-261.589-250.709-261.589zM219.861 239.147c39.125-8.789 67.797-32.384 95.744-55.211 40.021-32.853 81.408-66.688 160.768-66.688h131.584c70.827 0 167.467 112.64 198.229 182.613-38.229-5.333-99.499 5.717-135.381 39.083-4.949 4.48-7.467 11.221-6.699 17.92 0.725 6.699 4.523 12.672 10.368 16.085 37.76 22.229 80.768 76.8 90.581 130.176-40.533-31.744-101.845-45.355-139.947-26.283-5.205 2.688-9.088 7.168-10.795 12.715-1.707 5.589-1.152 11.563 1.664 16.725 46.123 84.224-24.747 260.309-132.139 359.083 22.144-84.907 5.333-181.888-49.365-276.053-1.195-2.133-2.688-3.968-4.437-5.419-41.771-36.309-97.792-32.427-134.955 8.96-10.155-43.093 14.208-74.965 43.477-113.28 36.992-48.597 83.115-109.184 43.733-200.021-2.645-6.101-7.979-10.581-14.421-12.203-6.443-1.579-13.269-0.085-18.475 4.139-11.733 9.429-25.515 14.165-40.747 14.165-34.261-0.128-70.101-23.509-88.789-46.507z" />
<glyph unicode="&#xe92f;" glyph-name="pli-folder-with-document" d="M298.667 426.667h-42.667v576c0 11.776 9.557 21.333 21.333 21.333h640c11.733 0 21.333-9.557 21.333-21.333v-448h-42.667v426.667h-597.333v-554.667zM810.667 896h-426.667c-11.776 0-21.333 9.557-21.333 21.333s9.557 21.333 21.333 21.333h426.667c11.733 0 21.333-9.557 21.333-21.333s-9.6-21.333-21.333-21.333zM810.667 725.333h-426.667c-11.776 0-21.333 9.557-21.333 21.333s9.557 21.333 21.333 21.333h426.667c11.733 0 21.333-9.557 21.333-21.333s-9.6-21.333-21.333-21.333zM640 810.667h-256c-11.776 0-21.333 9.557-21.333 21.333s9.557 21.333 21.333 21.333h256c11.733 0 21.333-9.557 21.333-21.333s-9.6-21.333-21.333-21.333zM21.333 405.333c-11.776 0-21.333 9.6-21.333 21.333v264.021c0 85.12 72.448 162.688 152.021 162.688h103.979c11.776 0 21.333-9.557 21.333-21.333s-9.557-21.333-21.333-21.333h-104.021c-56.192 0-109.355-58.325-109.355-120.021v-264.021c0.043-11.733-9.557-21.333-21.291-21.333zM1002.667 405.333c-11.776 0-21.333 9.6-21.333 21.333v128c0 49.195-28.757 94.635-73.259 115.712-10.667 5.035-15.147 17.792-10.069 28.416 4.992 10.624 17.749 15.147 28.416 10.112 59.307-28.117 97.579-88.661 97.579-154.283v-128c0-11.691-9.6-21.291-21.333-21.291zM874.667 0h-704c-1.92 0-3.797 0.256-5.589 0.768-4.907-0.512-9.813-0.768-14.848-0.768-83.627 0-150.229 66.603-150.229 148.437v278.229c0 11.733 9.557 21.333 21.333 21.333s21.333-9.6 21.333-21.333v-278.229c0-58.325 47.403-105.771 105.771-105.771 60.117 0 107.563 47.445 107.563 105.771v299.563c0 82.347 66.987 149.333 149.333 149.333h469.333c82.347 0 149.333-66.987 149.333-149.333v-298.667c0-82.347-66.987-149.333-149.333-149.333zM254.208 42.667h620.459c58.752 0 106.667 47.872 106.667 106.667v298.667c0 58.795-47.915 106.667-106.667 106.667h-469.333c-58.795 0-106.667-47.872-106.667-106.667v-299.563c0-41.344-16.981-78.848-44.459-105.771z" />
<glyph unicode="&#xe930;" glyph-name="pli-gear" d="M512 21.376c-62.208 0-113.067 49.579-115.157 111.317-24.832 7.509-48.853 17.408-71.723 29.611-43.648-40.96-117.504-39.979-160.085 2.688-21.76 21.76-33.749 50.645-33.749 81.408 0 29.397 10.965 57.259 31.019 78.72-12.245 22.912-22.187 46.891-29.653 71.723-61.739 2.133-111.317 52.907-111.317 115.2 0 62.165 49.579 113.024 111.317 115.072 7.509 24.832 17.451 48.939 29.696 71.765-20.053 21.419-31.061 49.152-31.061 78.805 0 30.805 11.989 59.605 33.792 81.28 42.496 42.667 116.352 43.648 160.043 2.688 22.869 12.245 46.891 22.229 71.723 29.696 2.048 61.696 52.907 111.275 115.157 111.275s113.067-49.579 115.157-111.232c24.832-7.509 48.811-17.493 71.68-29.696 43.648 40.96 117.547 39.893 160.085-2.688 21.76-21.675 33.749-50.645 33.749-81.408 0-29.397-10.965-57.259-31.019-78.72 12.245-22.827 22.187-46.891 29.653-71.723 61.739-2.005 111.317-52.907 111.317-115.072 0-62.251-49.579-113.067-111.317-115.157-7.509-24.832-17.408-48.853-29.611-71.765 20.011-21.419 31.019-49.067 31.019-78.72 0-30.805-11.947-59.605-33.749-81.408-42.496-42.581-116.309-43.605-160.085-2.688-22.869-12.245-46.848-22.229-71.68-29.611-2.133-61.781-52.992-111.36-115.2-111.36zM319.488 211.456c3.755 0 7.509-0.981 10.923-2.987 29.355-17.579 61.013-30.805 94.165-39.168 10.496-2.688 17.323-12.757 15.915-23.509-0.683-4.693-1.024-6.912-1.024-9.173 0-40.021 32.555-72.576 72.533-72.576 40.021 0 72.533 32.64 72.533 72.576 0 2.304-0.384 4.437-0.725 6.528-1.493 10.752 4.992 23.424 15.531 26.027 33.152 8.363 64.811 21.589 94.165 39.168 9.301 5.504 21.12 3.328 27.733-5.077 1.749-2.347 3.115-4.565 4.437-6.997 28.203-29.355 75.605-28.501 102.955-0.981 13.696 13.653 21.248 31.872 21.248 51.243 0 19.413-7.552 37.632-21.248 51.328-3.371 1.664-5.803 3.115-8.021 4.907-8.405 6.656-10.624 18.517-5.12 27.648 17.579 29.355 30.763 61.099 39.168 94.165 2.688 10.411 12.459 17.195 23.339 15.915 5.077-0.768 7.168-1.024 9.344-1.024 40.021 0 72.533 32.555 72.533 72.533 0 42.069-37.717 76.501-78.976 71.936-10.752-1.749-23.595 4.992-26.24 15.488-8.448 33.067-21.589 64.853-39.168 94.123-5.547 9.259-3.328 21.12 5.205 27.776 2.261 1.749 4.608 3.157 7.083 4.437 14.592 13.995 22.144 32.213 22.144 51.627 0 19.371-7.552 37.589-21.205 51.243-27.435 27.435-75.179 27.435-102.613 0-1.749-3.413-3.115-5.76-4.864-8.021-6.613-8.491-18.475-10.667-27.733-5.077-29.355 17.579-61.013 30.763-94.165 39.168-10.453 2.688-17.28 12.672-15.872 23.424 0.683 4.736 0.981 6.997 0.981 9.259 0 40.021-32.597 72.491-72.533 72.491-39.979 0-72.533-32.597-72.533-72.491 0-2.347 0.384-4.437 0.683-6.571 1.536-10.752-4.992-23.424-15.531-26.069-33.152-8.32-64.853-21.589-94.165-39.168-9.216-5.504-21.12-3.328-27.733 5.163-1.707 2.347-3.115 4.608-4.437 7.040-28.203 29.397-75.605 28.416-102.955 0.981-13.696-13.611-21.248-31.829-21.291-51.2 0-19.413 7.552-37.675 21.248-51.371 3.328-1.707 5.717-3.072 7.979-4.821 8.533-6.613 10.709-18.603 5.205-27.733-17.579-29.355-30.763-61.099-39.168-94.123-2.645-10.411-12.757-17.579-23.339-15.915-5.077 0.683-7.168 0.939-9.344 0.939-40.021 0-72.533-32.555-72.533-72.491 0-42.155 38.101-76.757 78.933-71.979 10.709 1.536 23.595-4.949 26.283-15.445 8.405-33.024 21.589-64.811 39.168-94.165 5.504-9.173 3.328-20.992-5.12-27.605-2.261-1.792-4.651-3.243-7.125-4.523-14.592-13.995-22.187-32.256-22.144-51.669 0-19.413 7.552-37.589 21.248-51.243 27.435-27.477 75.179-27.477 102.571 0 1.749 3.413 3.157 5.76 4.907 8.021 4.139 5.205 10.411 8.021 16.768 8.021zM512 365.525c-80.768 0-146.475 65.664-146.475 146.517s65.707 146.517 146.475 146.517c80.768 0 146.517-65.664 146.517-146.517s-65.749-146.517-146.517-146.517zM512 615.893c-57.259 0-103.808-46.592-103.808-103.851s46.549-103.851 103.808-103.851 103.851 46.592 103.851 103.851-46.592 103.851-103.851 103.851zM512 234.709c-152.917 0-277.333 124.416-277.333 277.333s124.416 277.333 277.333 277.333 277.333-124.416 277.333-277.333-124.416-277.333-277.333-277.333zM512 746.709c-129.408 0-234.667-105.301-234.667-234.667s105.259-234.667 234.667-234.667 234.667 105.301 234.667 234.667-105.259 234.667-234.667 234.667z" />
<glyph unicode="&#xe931;" glyph-name="pli-go-top" d="M780.16 742.059c-4.48 0-9.131 1.451-13.013 4.437l-255.061 197.077-249.728-196.907c-9.216-7.296-22.656-5.717-29.952 3.541s-5.717 22.656 3.541 29.952l262.869 207.275c7.723 6.059 18.56 6.101 26.24 0.128l268.203-207.275c9.344-7.211 11.093-20.608 3.84-29.909-4.224-5.461-10.496-8.32-16.939-8.32zM512 10.667c-11.776 0-21.333 9.515-21.333 21.333v938.667c0 11.819 9.557 21.333 21.333 21.333s21.333-9.515 21.333-21.333v-938.667c0-11.819-9.557-21.333-21.333-21.333zM789.333 970.667h-554.667c-11.776 0-21.333 9.557-21.333 21.333s9.557 21.333 21.333 21.333h554.667c11.733 0 21.333-9.557 21.333-21.333s-9.6-21.333-21.333-21.333z" />
<glyph unicode="&#xe932;" glyph-name="pli-google-plus" d="M326.997 511.957c-152.235 0-254.677 102.315-254.677 254.677 0 166.059 100.437 257.323 282.667 257.323h229.333c11.733 0 21.333-9.6 21.333-21.333s-9.6-21.333-21.333-21.333h-229.333c-157.013 0-240-74.24-240-214.656 0-128.811 83.2-212.011 212.011-212.011 88.576 0 167.893 81.067 168.576 81.92 8.235 8.533 21.76 8.661 30.165 0.597 8.491-8.107 8.747-21.717 0.597-30.165-3.797-3.883-92.843-95.019-199.339-95.019zM968.32 511.957h-298.667c-11.733 0-21.333 9.6-21.333 21.333s9.6 21.333 21.333 21.333h298.667c11.733 0 21.333-9.6 21.333-21.333s-9.557-21.333-21.333-21.333zM818.987 362.624c-11.733 0-21.333 9.643-21.333 21.333v298.667c0 11.733 9.6 21.333 21.333 21.333s21.333-9.6 21.333-21.333v-298.667c0-11.691-9.557-21.333-21.333-21.333zM351.659-0.043c-210.56 0-317.355 64.384-317.355 191.275 0 87.936 54.912 192.725 316.672 192.725 35.029 0 72.661-2.475 105.131-5.291-44.501 28.544-86.912 59.563-86.912 112.896 0 50.987 35.456 75.307 69.76 98.688 48.171 32.896 102.613 70.144 102.613 194.56 0 105.813-102.613 196.565-186.624 196.565-11.733 0-21.333 9.6-21.333 21.333s9.6 21.333 21.333 21.333c115.712 0 229.291-118.528 229.291-239.232 0-146.901-70.101-194.773-121.259-229.803-33.621-22.955-51.157-36.181-51.157-63.275 0-32.811 29.909-53.333 78.805-84.395 61.355-38.741 137.728-87.211 137.728-194.688 0-143.104-90.539-212.693-276.693-212.693zM351.061 341.291c-181.845 0-274.005-50.56-274.005-150.059 0-63.829 28.459-148.608 274.688-148.608 207.36 0 233.941 90.837 233.941 169.941 0 52.651-23.68 87.339-55.637 114.773-22.784 3.2-107.776 13.952-178.987 13.952z" />
<glyph unicode="&#xe933;" glyph-name="pli-heart-2" d="M512 76.331c-2.816 0-5.675 0.597-8.363 1.707-319.232 135.765-498.944 408.192-427.264 647.893 40.32 134.699 147.115 221.739 272.128 221.739 57.728 0 113.92-18.901 163.499-55.083 49.579 36.181 105.771 55.083 163.499 55.083 125.013 0 231.851-87.040 272.128-221.739 71.723-239.573-108.032-512.085-427.264-647.893-2.688-1.109-5.547-1.707-8.363-1.707zM348.501 905.003c-105.728 0-196.48-75.136-231.253-191.36-63.659-212.821 105.771-466.389 394.752-592.725 288.981 126.336 458.411 379.819 394.752 592.725-34.731 116.352-125.483 191.36-231.253 191.36-53.12 0-105.003-19.328-150.059-55.936-7.851-6.357-19.029-6.357-26.88 0-45.056 36.608-96.939 55.936-150.059 55.936z" />
<glyph unicode="&#xe934;" glyph-name="pli-home" d="M917.333-0.043h-298.667c-11.733 0-21.333 9.557-21.333 21.333v277.333h-170.667v-277.333c0-11.776-9.557-21.333-21.333-21.333h-298.667c-11.776 0-21.333 9.557-21.333 21.333v533.333h-64c-8.875 0-16.853 5.504-19.968 13.867s-0.725 17.707 5.973 23.595l490.667 426.667c8.021 6.997 19.968 6.997 27.989 0l114.005-99.157v83.072c0 11.776 9.6 21.333 21.333 21.333h170.667c11.733 0 21.333-9.557 21.333-21.333v-268.587l163.328-141.995c6.656-5.888 9.088-15.232 5.973-23.595-3.115-8.32-11.093-13.867-19.968-13.867h-64v-533.333c0-11.776-9.6-21.333-21.333-21.333zM640 42.624h256v533.333c0 11.776 9.6 21.333 21.333 21.333h28.288l-135.339 117.632c-8.661 7.552-9.813 20.565-2.645 29.525 0.896 1.152 1.92 2.176 2.987 3.115v233.728h-128v-108.544c0.043-8.363-4.779-15.957-12.416-19.413-7.552-3.499-16.555-2.176-22.869 3.243l-135.339 117.76-433.621-377.045h28.288c11.776 0 21.333-9.557 21.333-21.333v-533.333h256v277.333c0 11.776 9.557 21.333 21.333 21.333h213.333c11.733 0 21.333-9.557 21.333-21.333v-277.333z" />
<glyph unicode="&#xe935;" glyph-name="pli-idea-2" d="M661.333 138.667h-298.667c-11.733 0-21.333 9.6-21.333 21.333v229.675c-66.987 52.48-106.667 133.291-106.667 218.325 0 152.917 124.416 277.333 277.333 277.333s277.333-124.416 277.333-277.333c0-85.035-39.68-165.803-106.667-218.325v-229.675c0-11.733-9.6-21.333-21.333-21.333zM384 181.333h256v219.008c0 6.912 3.285 13.397 8.875 17.323 61.312 44.075 97.792 115.285 97.792 190.293 0 129.365-105.301 234.667-234.667 234.667s-234.667-105.301-234.667-234.667c0-75.051 36.48-146.219 97.792-190.293 5.589-4.011 8.875-10.411 8.875-17.323v-219.008zM512 10.667c-86.229 0-149.333 98.176-149.333 149.333 0 11.733 9.6 21.333 21.333 21.333h256c11.733 0 21.333-9.6 21.333-21.333 0-51.157-63.104-149.333-149.333-149.333zM410.155 138.667c13.568-35.072 53.76-85.333 101.845-85.333s88.235 50.261 101.845 85.333h-203.691zM640 352h-256c-11.733 0-21.333 9.6-21.333 21.333s9.6 21.333 21.333 21.333h256c11.733 0 21.333-9.6 21.333-21.333s-9.6-21.333-21.333-21.333zM640.043 288c-1.109 0-2.389 0.085-3.541 0.256l-256 42.667c-11.563 1.92-19.499 13.013-17.536 24.576 1.963 11.648 13.227 19.499 24.533 17.493l256-42.667c11.563-1.92 19.499-12.928 17.536-24.491-1.749-10.496-10.795-17.835-20.992-17.835zM640.043 202.667c-1.109 0-2.389 0.085-3.541 0.256l-256 42.667c-11.563 1.92-19.499 13.013-17.536 24.576 1.963 11.648 13.227 19.499 24.533 17.493l256-42.667c11.563-1.92 19.499-12.928 17.536-24.491-1.749-10.496-10.795-17.835-20.992-17.835zM170.667 565.333h-85.333c-11.733 0-21.333 9.6-21.333 21.333s9.6 21.333 21.333 21.333h85.333c11.733 0 21.333-9.6 21.333-21.333s-9.6-21.333-21.333-21.333zM938.667 565.333h-85.333c-11.733 0-21.333 9.6-21.333 21.333s9.6 21.333 21.333 21.333h85.333c11.733 0 21.333-9.6 21.333-21.333s-9.6-21.333-21.333-21.333zM384 885.333c-7.851 0-15.317 4.352-19.072 11.733l-42.667 85.333c-5.248 10.581-1.024 23.381 9.557 28.672 10.581 5.248 23.381 0.896 28.672-9.643l42.667-85.333c5.163-10.539 0.939-23.339-9.557-28.629-3.2-1.408-6.4-2.133-9.6-2.133zM640 885.333c-3.2 0-6.4 0.768-9.6 2.261-10.496 5.291-14.763 18.091-9.6 28.629l42.667 85.333c5.333 10.496 18.176 14.805 28.672 9.643 10.581-5.291 14.848-18.176 9.6-28.629l-42.667-85.333c-3.755-7.595-11.221-11.904-19.072-11.904zM213.333 757.333c-3.2 0-6.4 0.768-9.6 2.261l-85.333 42.667c-10.496 5.248-14.72 18.048-9.557 28.587 5.291 10.496 18.176 14.805 28.672 9.643l85.333-42.667c10.581-5.291 14.805-18.176 9.557-28.629-3.755-7.552-11.221-11.861-19.072-11.861zM810.667 757.333c-7.851 0-15.317 4.352-19.072 11.733-5.248 10.581-0.981 23.381 9.6 28.672l85.333 42.667c10.496 5.248 23.381 0.896 28.672-9.643 5.163-10.539 0.896-23.339-9.6-28.629l-85.333-42.667c-3.2-1.408-6.4-2.133-9.6-2.133z" />
<glyph unicode="&#xe936;" glyph-name="pli-inbox-full" d="M1002.667 448c-8.277 0-16.128 4.821-19.584 12.928l-128 298.667c-4.651 10.795 0.384 23.339 11.221 27.989 10.709 4.693 23.339-0.341 27.989-11.221l128-298.667c4.608-10.795-0.384-23.381-11.221-28.032-2.731-1.109-5.632-1.664-8.405-1.664zM21.333 448c-2.816 0-5.675 0.555-8.405 1.707-10.837 4.608-15.872 17.195-11.221 28.032l128 298.667c4.608 10.837 17.237 15.915 27.947 11.221 10.88-4.651 15.872-17.195 11.264-27.989l-128-298.667c-3.456-8.149-11.349-12.971-19.584-12.971zM1002.667 106.667h-981.333c-11.776 0-21.333 9.6-21.333 21.333v341.333c0 11.733 9.557 21.333 21.333 21.333h256.853c9.259 0 17.493-6.016 20.352-14.848l14.976-46.763c11.563-36.053 53.205-66.475 90.965-66.475h215.168c37.845 0 79.531 30.421 91.136 66.56l15.019 46.72c2.816 8.832 11.051 14.805 20.309 14.805h256.725c11.733 0 21.333-9.557 21.333-21.333v-341.333c-0.171-11.733-9.771-21.333-21.504-21.333zM42.667 149.333h938.667v298.667h-219.776l-10.24-31.957c-17.28-53.888-75.221-96.043-131.712-96.043h-215.168c-56.576 0-114.389 42.197-131.584 96.085l-10.283 31.915h-219.904v-298.667zM810.667 789.333h-597.333c-11.776 0-21.333 9.557-21.333 21.333s9.557 21.333 21.333 21.333h597.333c11.733 0 21.333-9.557 21.333-21.333s-9.6-21.333-21.333-21.333zM768 874.667h-512c-11.776 0-21.333 9.557-21.333 21.333s9.557 21.333 21.333 21.333h512c11.733 0 21.333-9.557 21.333-21.333s-9.6-21.333-21.333-21.333zM832 469.333c-11.776 0-21.333 9.6-21.333 21.333v213.333h-597.333v-213.333c0-11.733-9.6-21.333-21.333-21.333-11.776 0-21.333 9.6-21.333 21.333v234.667c0 11.776 9.557 21.333 21.333 21.333h640c11.733 0 21.333-9.557 21.333-21.333v-234.667c0-11.733-9.6-21.333-21.333-21.333z" />
<glyph unicode="&#xe937;" glyph-name="pli-inbox-into" d="M1002.667 42.667h-981.333c-11.776 0-21.333 9.6-21.333 21.333v341.333c0 11.733 9.557 21.333 21.333 21.333h256.853c9.259 0 17.493-6.016 20.352-14.848l14.933-46.763c11.563-36.053 53.205-66.475 91.008-66.475h215.125c37.845 0 79.531 30.421 91.179 66.56l15.019 46.72c2.731 8.832 10.965 14.805 20.181 14.805h256.725c11.733 0 21.333-9.557 21.333-21.333v-341.333c-0.043-11.733-9.643-21.333-21.376-21.333zM42.667 85.333h938.667v298.667h-219.776l-10.24-31.957c-17.323-53.888-75.221-96.043-131.755-96.043h-215.125c-56.576 0-114.389 42.197-131.627 96.085l-10.24 31.915h-219.904v-298.667zM1002.667 384c-8.277 0-16.128 4.821-19.584 12.928l-122.453 285.739h-263.296c-11.776 0-21.333 9.557-21.333 21.333s9.557 21.333 21.333 21.333h277.333c8.533 0 16.256-5.077 19.584-12.928l128-298.667c4.608-10.795-0.384-23.339-11.264-28.032-2.645-1.152-5.547-1.707-8.32-1.707zM21.333 384c-2.816 0-5.675 0.555-8.405 1.707-10.837 4.608-15.872 17.195-11.221 28.032l128 298.667c3.371 7.851 11.051 12.928 19.584 12.928h234.667c11.733 0 21.333-9.557 21.333-21.333s-9.6-21.333-21.333-21.333h-220.587l-122.453-285.739c-3.456-8.107-11.349-12.928-19.584-12.928zM490.667 423.083c-5.717 0-11.221 2.304-15.189 6.315l-127.403 129.451c-8.235 8.405-8.149 21.888 0.256 30.165 8.32 8.235 21.888 8.149 30.165-0.256l112.128-113.92 112.555 116.224c8.192 8.448 21.717 8.661 30.165 0.427s8.661-21.675 0.469-30.208l-127.744-131.84c-4.011-4.139-9.472-6.443-15.189-6.443-0.128 0.085-0.213 0.085-0.213 0.085zM490.667 448c-11.776 0-21.333 9.6-21.333 21.333v320c0 105.856 86.144 192 192 192h21.333c11.733 0 21.333-9.557 21.333-21.333s-9.6-21.333-21.333-21.333h-21.333c-82.389 0-149.333-66.987-149.333-149.333v-320c0-11.733-9.6-21.333-21.333-21.333z" />
<glyph unicode="&#xe938;" glyph-name="pli-information" d="M576.213 255.104h-128c-11.776 0-21.333 9.6-21.333 21.333v298.667c0 11.733 9.557 21.333 21.333 21.333h128c11.776 0 21.333-9.6 21.333-21.333v-298.667c0-11.776-9.557-21.333-21.333-21.333zM469.547 297.771h85.333v256h-85.333v-256zM512.213 637.653c-47.189 0-85.589 38.315-85.589 85.589s38.4 85.589 85.589 85.589c47.189 0 85.589-38.315 85.589-85.589s-38.4-85.589-85.589-85.589zM512.213 766.165c-23.68 0-42.923-19.243-42.923-42.923s19.243-42.923 42.923-42.923c23.723 0 42.923 19.243 42.923 42.923s-19.2 42.923-42.923 42.923zM512 0c-282.325 0-512 229.675-512 512s229.675 512 512 512 512-229.675 512-512-229.675-512-512-512zM512 981.333c-258.773 0-469.333-210.645-469.333-469.333 0-258.773 210.56-469.333 469.333-469.333 258.731 0 469.333 210.56 469.333 469.333 0 258.731-210.517 469.333-469.333 469.333z" />
<glyph unicode="&#xe939;" glyph-name="pli-instagram" d="M874.667 0h-725.333c-82.347 0-149.333 66.987-149.333 149.333v725.333c0 82.347 66.987 149.333 149.333 149.333h725.333c82.347 0 149.333-66.987 149.333-149.333v-725.333c0-82.347-66.987-149.333-149.333-149.333zM149.333 981.333c-58.795 0-106.667-47.829-106.667-106.667v-725.333c0-58.837 47.872-106.667 106.667-106.667h725.333c58.795 0 106.667 47.829 106.667 106.667v725.333c0 58.837-47.872 106.667-106.667 106.667h-725.333zM512 256c-141.184 0-256 114.816-256 256s114.816 256 256 256c141.184 0 256-114.816 256-256s-114.816-256-256-256zM512 725.333c-117.632 0-213.333-95.701-213.333-213.333s95.701-213.333 213.333-213.333 213.333 95.701 213.333 213.333-95.701 213.333-213.333 213.333zM512 373.333c-76.459 0-138.667 62.208-138.667 138.667s62.208 138.667 138.667 138.667 138.667-62.208 138.667-138.667-62.208-138.667-138.667-138.667zM512 608c-52.949 0-96-43.093-96-96s43.051-96 96-96 96 43.093 96 96-43.051 96-96 96zM42.667 725.333h341.333v-42.667h-341.333v42.667zM640 725.333h341.333v-42.667h-341.333v42.667zM277.333 682.667h-128c-11.776 0-21.333 9.6-21.333 21.333v298.667c0 11.733 9.557 21.333 21.333 21.333h128c11.776 0 21.333-9.6 21.333-21.333v-298.667c0-11.733-9.557-21.333-21.333-21.333zM170.667 725.333h85.333v256h-85.333v-256zM874.667 768h-128c-11.733 0-21.333 9.6-21.333 21.333v128c0 11.733 9.6 21.333 21.333 21.333h128c11.733 0 21.333-9.6 21.333-21.333v-128c0-11.733-9.6-21.333-21.333-21.333zM768 810.667h85.333v85.333h-85.333v-85.333z" />
<glyph unicode="&#xe93a;" glyph-name="pli-internet" d="M911.89 791.693c-25.282 34.11-84.851 32.168-160.097 7.168-63.947 52.365-145.62 83.897-234.567 83.897-204.447 0-370.759-166.312-370.759-370.759 0-46.68 9.039-91.242 24.858-132.449-58.439-74.681-86.334-141.171-57.98-179.518 12.924-17.373 34.851-26.13 65.324-26.13 6.25 0 12.853 0.353 19.844 1.095 9.675 1.024 16.737 9.71 15.678 19.421s-9.498 16.702-19.421 15.678c-26.836-2.719-45.692 1.059-53.071 11.017-13.277 17.938 2.33 62.358 45.974 121.785 61.581-119.561 186.050-201.657 329.551-201.657 204.447 0 370.759 166.312 370.759 370.759 0 100.846-40.607 192.335-106.178 259.249 53.919 15.466 90.289 14.83 101.694-0.565 8.474-11.476 3.531-31.885-2.154-46.998-3.46-9.11 1.201-19.279 10.311-22.74 9.216-3.354 19.315 1.165 22.74 10.346 12.712 33.898 11.864 60.91-2.507 80.402zM789.045 707.761c36.582-50.67 59.251-111.793 62.711-178.035h-141.383c-2.366 62.358-16.808 122.386-41.525 176.552h113.17c2.507 0 4.908 0.565 7.027 1.483zM789.116 316.345c-2.189 0.918-4.555 1.518-7.062 1.518h-112.958c24.611 54.201 39.018 114.194 41.313 176.552h141.383c-3.46-66.278-26.094-127.4-62.676-178.070zM517.226 183.049c-36.723 26.483-68.22 60.239-93.184 99.505h186.297c-24.929-39.265-56.426-73.022-93.113-99.505zM403.597 317.864c-26.695 53.213-41.807 113.77-44.314 176.552h315.816c-2.507-62.782-17.62-123.339-44.314-176.552h-227.187zM245.372 707.761c2.154-0.918 4.52-1.483 7.027-1.483h113.134c-23.87-52.259-38.029-110.027-41.137-170.019-2.507-2.189-5.085-4.308-7.592-6.532h-134.144c3.496 66.242 26.165 127.364 62.711 178.035zM517.226 840.633c36.546-26.377 67.972-59.957 92.902-99.046h-185.838c24.929 39.053 56.355 72.669 92.937 99.046zM630.572 706.278c26.765-53.177 41.949-113.735 44.526-176.552h-304.057c22.916 18.997 47.386 38.312 73.693 57.803 66.807 49.505 129.271 88.629 185.238 118.749h0.6zM559.245 706.278c-45.692-27.26-91.736-57.874-135.592-90.359-20.868-15.466-41.419-31.603-61.581-48.022 6.285 49.081 20.48 96.044 41.772 138.381h155.401zM571.074 842.717c52.189-8.474 100.246-28.884 141.453-58.509-22.034-8.898-44.915-19.315-68.431-31.108-20.409 33.439-44.703 63.841-73.022 89.618zM463.342 842.717c-31.532-28.707-58.086-63.1-79.695-101.129h-110.31c49.47 52.577 115.606 89.017 190.005 101.129zM182.66 494.415h95.409c-29.59-27.86-56.956-55.932-80.755-83.297-8.369 26.483-13.171 54.484-14.654 83.297zM324.29 489.437c2.86-60.557 17.055-118.819 41.031-171.573h-112.922c-2.542 0-4.943-0.6-7.097-1.518-12.959 17.973-24.223 37.217-33.439 57.591 29.025 35.134 66.454 74.187 112.428 115.5zM273.196 282.553h110.204c21.575-38.029 48.093-72.492 79.554-101.199-74.293 12.147-140.323 48.658-189.758 101.199zM571.463 181.354c31.462 28.707 57.98 63.17 79.554 101.199h110.239c-49.434-52.542-115.465-89.053-189.793-101.199zM761.114 741.588h-59.427c14.689 6.497 28.743 12.253 41.984 17.161 6.038-5.544 11.864-11.229 17.443-17.161z" />
<glyph unicode="&#xe93b;" glyph-name="pli-laptop" d="M938.667 149.333h-853.333c-47.061 0-85.333 38.229-85.333 85.333v21.333c0 11.733 9.557 21.333 21.333 21.333h981.333c11.733 0 21.333-9.6 21.333-21.333v-21.333c0-47.104-38.229-85.333-85.333-85.333zM42.667 234.667c0-23.509 19.157-42.667 42.667-42.667h853.333c23.509 0 42.667 19.157 42.667 42.667h-938.667zM917.333 234.667h-810.667c-11.776 0-21.333 9.6-21.333 21.333v533.333c0 47.104 38.272 85.333 85.333 85.333h682.667c47.104 0 85.333-38.229 85.333-85.333v-533.333c0-11.733-9.6-21.333-21.333-21.333zM128 277.333h768v512c0 23.509-19.157 42.667-42.667 42.667h-682.667c-23.509 0-42.667-19.157-42.667-42.667v-512zM832 320h-640c-11.776 0-21.333 9.6-21.333 21.333v426.667c0 11.776 9.557 21.333 21.333 21.333h640c11.733 0 21.333-9.557 21.333-21.333v-426.667c0-11.733-9.6-21.333-21.333-21.333zM213.333 362.667h597.333v384h-597.333v-384z" />
<glyph unicode="&#xe93c;" glyph-name="pli-layout-grid" d="M957.995 0h-337.323c-36.437 0-66.005 29.568-66.005 66.005v337.323c0 36.437 29.568 66.005 66.005 66.005h337.323c36.437 0 66.005-29.568 66.005-66.005v-337.323c0-36.437-29.568-66.005-66.005-66.005zM620.672 426.667c-12.928 0-23.339-10.453-23.339-23.339v-337.323c0-12.885 10.496-23.339 23.339-23.339h337.237c12.928 0 23.339 10.453 23.339 23.339v337.323c0 12.885-10.496 23.339-23.339 23.339h-337.237zM403.328 0h-337.323c-36.395 0-66.005 29.568-66.005 66.005v337.323c0 36.437 29.611 66.005 66.005 66.005h337.28c36.437 0 66.048-29.568 66.048-66.005v-337.323c0-36.437-29.611-66.005-66.005-66.005zM65.963 426.667c-12.843 0-23.296-10.453-23.296-23.339v-337.323c0-12.885 10.496-23.339 23.296-23.339h337.28c12.885 0 23.339 10.453 23.339 23.339v337.323c0.043 12.885-10.496 23.339-23.296 23.339h-337.323zM957.995 554.667h-337.323c-36.437 0-66.005 29.611-66.005 66.005v337.323c0 36.437 29.568 66.005 66.005 66.005h337.323c36.437 0 66.005-29.568 66.005-66.005v-337.323c0-36.395-29.568-66.005-66.005-66.005zM620.672 981.333c-12.928 0-23.339-10.453-23.339-23.339v-337.323c0-12.885 10.496-23.339 23.339-23.339h337.237c12.928 0 23.339 10.453 23.339 23.339v337.323c0 12.885-10.496 23.339-23.339 23.339h-337.237zM403.328 554.667h-337.323c-36.395 0-66.005 29.611-66.005 66.005v337.323c0 36.437 29.611 66.005 66.005 66.005h337.28c36.437 0 66.048-29.568 66.048-66.005v-337.323c0-36.395-29.611-66.005-66.005-66.005zM65.963 981.333c-12.843 0-23.296-10.453-23.296-23.339v-337.323c0-12.885 10.496-23.339 23.296-23.339h337.28c12.885 0 23.339 10.453 23.339 23.339v337.323c0.043 12.885-10.496 23.339-23.296 23.339h-337.323z" />
<glyph unicode="&#xe93d;" glyph-name="pli-left-4" d="M1002.667 21.376c-11.733 0-21.333 9.557-21.333 21.333 0 200.149-150.101 319.659-401.323 319.659h-25.344v-221.355c0-8.149-4.736-15.701-12.117-19.243-7.467-3.456-16.213-2.517-22.613 2.688l-512 413.312c-4.992 4.011-7.893 10.027-7.936 16.427-0.043 6.315 2.773 12.459 7.68 16.555l512 426.923c6.357 5.333 15.275 6.443 22.699 2.944 7.552-3.499 12.288-11.051 12.288-19.328v-234.923h25.344c269.739 0 443.989-149.12 443.989-379.947v-323.712c0-11.819-9.6-21.333-21.333-21.333zM54.955 554.624l457.045-368.896v198.016c0 11.733 9.557 21.333 21.333 21.333h46.677c193.109 0 334.677-69.035 401.323-188.117v149.504c0 204.885-157.483 337.28-401.323 337.28h-46.677c-11.776 0-21.333 9.557-21.333 21.333v210.645l-457.045-381.099z" />
</font>
</defs>
</svg>
